Europe – The Final Countdown (The Best Of Europe)




Artist: Europe
Year: 2009
Genre: Rock
Notes: Discogs
Add. Notes:
Cover incl.: Yes
Encoder: FLAC
Bitrate: ~1000 kBit/s (44.1 kHz/16 Bit/s)
Log & Cue incl.: Yes
Size: 1099 MB
Password: “slam” (without ” “)


All Downloads/Hosters are compatible

Download 1
Turbobit.net
Rapidgator.net
UploadEver.com
KatFile.com
UsersDrive.com
Download 2
Turbobit.net
Rapidgator.net
UploadEver.com
KatFile.com
UsersDrive.com
Download 3
Turbobit.net
Rapidgator.net
UploadEver.com
KatFile.com
UsersDrive.com

Tracklist:

1-1 - The Final Countdown - 5:12
1-2 - Carrie - 4:31
1-3 - Rock The Night - 4:06
1-4 - Superstitious - 4:35
1-5 - Love Chaser - 3:28
1-6 - Cherokee - 4:12
1-7 - Open Your Heart - 4:03
1-8 - Let The Good Times Rock - 4:05
1-9 - Sign Of The Times - 4:16
1-10 - More Than Meets The Eye - 3:22
1-11 - Tomorrow - 3:06
1-12 - Prisoners In Paradise - 4:31
1-13 - I'll Cry For You - 4:10
1-14 - Halfway To Heaven - 4:08
1-15 - Sweet Love Child - 4:59
1-16 - The Final Countdown 2000 - 3:48
1-17 - Time Has Come - 4:00
1-18 - Heart Of Stone - 3:47
2-1 - On Broken Wings - 3:45
2-2 - In The Future To Come - 5:01
2-3 - Seven Doors Hotel - 5:16
2-4 - Stormwind - 4:24
2-5 - Scream Of Anger - 4:05
2-6 - Dreamer - 4:21
2-7 - Ninja - 3:46
2-8 - Coast To Coast - 4:01
2-9 - Ready Or Not - 4:05
2-10 - Seventh Sign - 4:42
2-11 - Got Your Mind In The Gutter - 5:00
2-12 - Aphasia - 2:31
2-13 - A Long Time Comin' - 3:56
2-14 - Girl From Lebanon - 4:22
2-15 - Wings Of Tomorrow - 3:58
2-16 - Danger On The Track - 3:47
2-17 - Never Say Die - 4:01
2-18 - Lights And Shadow - 4:05

EAC-Log, CUE-Sheed & NFO:

Click to open spoiler
Exact Audio Copy V0.99 prebeta 5 from 4. May 2009

Отчёт EAC об извлечении, выполненном 29. ноября 2010, 11:04

Europe / The Final Countdown The Best Of Europe CD1

Дисковод: ASUS DRW-24B1LT Adapter: 2 ID: 1

Режим чтения : Достоверность
Использование точного потока : Да
Отключение кэша аудио : Да
Использование указателей C2 : Нет

Коррекция смещения при чтении : 6
Способность читать области Lead-in и Lead-out : Нет
Заполнение пропущенных сэмплов тишиной : Да
Удаление блоков с тишиной в начале и конце : Нет
При вычислениях CRC использовались нулевые сэмплы : Да
Интерфейс : Встроенный Win32-интерфейс для Win NT/2000

Выходной формат : Пользовательский кодировщик
Выбранный битрейт : 768 kBit/s
Качество : Высокий
Добавление ID3-тэга : Нет
Утилита сжатия : C:\Program Files\Exact Audio Copy\Flac\flac.exe
Дополнительные параметры : -8 -V %s

TOC извлечённого CD

Трек | Старт | Длительность | Начальный сектор | Конечный сектор
———————————————————————
1 | 0:00.00 | 5:11.73 | 0 | 23397
2 | 5:11.73 | 4:31.69 | 23398 | 43791
3 | 9:43.67 | 4:06.02 | 43792 | 62243
4 | 13:49.69 | 4:35.18 | 62244 | 82886
5 | 18:25.12 | 3:28.14 | 82887 | 98500
6 | 21:53.26 | 4:12.34 | 98501 | 117434
7 | 26:05.60 | 4:03.12 | 117435 | 135671
8 | 30:08.72 | 4:05.05 | 135672 | 154051
9 | 34:14.02 | 4:16.21 | 154052 | 173272
10 | 38:30.23 | 3:22.09 | 173273 | 188431
11 | 41:52.32 | 3:06.24 | 188432 | 202405
12 | 44:58.56 | 4:31.28 | 202406 | 222758
13 | 49:30.09 | 4:10.60 | 222759 | 241568
14 | 53:40.69 | 4:08.26 | 241569 | 260194
15 | 57:49.20 | 4:59.22 | 260195 | 282641
16 | 62:48.42 | 3:48.41 | 282642 | 299782
17 | 66:37.08 | 4:00.03 | 299783 | 317785
18 | 70:37.11 | 3:47.54 | 317786 | 334864

Характеристики диапазона извлечения и сообщения об ошибках

Выбранный диапазон

Имя файла F:\раздачи новые\Europe – The Final Countdown The Best Of Europe 2CD – 2009(flac)\CD 1\Europe – The Final Countdown The Best Of Europe CD1.wav

Пиковый уровень 99.5 %
Качество диапазона 100.0 %
CRC теста 730ECB92
CRC копии 730ECB92
Копирование… OK

Ошибок не произошло

AccurateRip: сводка

Трек 1 точное извлечение (доверие 8) [57ADCA27]
Трек 2 точное извлечение (доверие 8) [5421C723]
Трек 3 точное извлечение (доверие 8) [EA8FD779]
Трек 4 точное извлечение (доверие 8) [E127E090]
Трек 5 точное извлечение (доверие 8) [6C3F535F]
Трек 6 точное извлечение (доверие 8) [CCC7C9B8]
Трек 7 точное извлечение (доверие 8) [277A5BB7]
Трек 8 точное извлечение (доверие 8) [18500A9F]
Трек 9 точное извлечение (доверие 8) [BC48C703]
Трек 10 точное извлечение (доверие 8) [4FFE582D]
Трек 11 точное извлечение (доверие 8) [83CD00C7]
Трек 12 точное извлечение (доверие 8) [EC5F9DB3]
Трек 13 точное извлечение (доверие 8) [CA2BCA4A]
Трек 14 точное извлечение (доверие 8) [1B373652]
Трек 15 точное извлечение (доверие 8) [E779B239]
Трек 16 точное извлечение (доверие 8) [0201976D]
Трек 17 точное извлечение (доверие 8) [2320B8A0]
Трек 18 точное извлечение (доверие 8) [DDD00661]

Все треки извлечены точно

Конец отчёта

Exact Audio Copy V0.99 prebeta 5 from 4. May 2009

Отчёт EAC об извлечении, выполненном 29. ноября 2010, 12:44

Europe / The Final Countdown The Best Of Europe CD2

Дисковод: ASUS DRW-24B1LT Adapter: 2 ID: 1

Режим чтения : Достоверность
Использование точного потока : Да
Отключение кэша аудио : Да
Использование указателей C2 : Нет

Коррекция смещения при чтении : 6
Способность читать области Lead-in и Lead-out : Нет
Заполнение пропущенных сэмплов тишиной : Да
Удаление блоков с тишиной в начале и конце : Нет
При вычислениях CRC использовались нулевые сэмплы : Да
Интерфейс : Встроенный Win32-интерфейс для Win NT/2000

Выходной формат : Пользовательский кодировщик
Выбранный битрейт : 768 kBit/s
Качество : Высокий
Добавление ID3-тэга : Нет
Утилита сжатия : C:\Program Files\Exact Audio Copy\Flac\flac.exe
Дополнительные параметры : -8 -V %s

TOC извлечённого CD

Трек | Старт | Длительность | Начальный сектор | Конечный сектор
———————————————————————
1 | 0:00.00 | 3:45.50 | 0 | 16924
2 | 3:45.50 | 5:01.55 | 16925 | 39554
3 | 8:47.30 | 5:16.51 | 39555 | 63305
4 | 14:04.06 | 4:24.39 | 63306 | 83144
5 | 18:28.45 | 4:05.43 | 83145 | 101562
6 | 22:34.13 | 4:20.72 | 101563 | 121134
7 | 26:55.10 | 3:46.59 | 121135 | 138143
8 | 30:41.69 | 4:00.73 | 138144 | 156216
9 | 34:42.67 | 4:04.70 | 156217 | 174586
10 | 38:47.62 | 4:42.40 | 174587 | 195776
11 | 43:30.27 | 5:00.26 | 195777 | 218302
12 | 48:30.53 | 2:31.32 | 218303 | 229659
13 | 51:02.10 | 3:56.03 | 229660 | 247362
14 | 54:58.13 | 4:21.74 | 247363 | 267011
15 | 59:20.12 | 3:58.41 | 267012 | 284902
16 | 63:18.53 | 3:47.10 | 284903 | 301937
17 | 67:05.63 | 4:01.46 | 301938 | 320058
18 | 71:07.34 | 4:05.17 | 320059 | 338450

Характеристики диапазона извлечения и сообщения об ошибках

Выбранный диапазон

Имя файла F:\раздачи новые\Europe – The Final Countdown The Best Of Europe 2CD – 2009(flac)\CD 2\Europe – The Final Countdown The Best Of Europe CD2.wav

Пиковый уровень 99.4 %
Качество диапазона 100.0 %
CRC теста 205FF248
CRC копии 205FF248
Копирование… OK

Ошибок не произошло

AccurateRip: сводка

Трек 1 точное извлечение (доверие 5) [A0B6B86E]
Трек 2 точное извлечение (доверие 5) [0F842688]
Трек 3 точное извлечение (доверие 5) [783CAF03]
Трек 4 точное извлечение (доверие 5) [ABD15E0E]
Трек 5 точное извлечение (доверие 5) [972AFB58]
Трек 6 точное извлечение (доверие 5) [34936D43]
Трек 7 точное извлечение (доверие 5) [29C64A13]
Трек 8 точное извлечение (доверие 5) [E459B495]
Трек 9 точное извлечение (доверие 5) [BB2C6EBB]
Трек 10 точное извлечение (доверие 5) [E25B5B07]
Трек 11 точное извлечение (доверие 5) [B6E88E6D]
Трек 12 точное извлечение (доверие 5) [5C6F21F0]
Трек 13 точное извлечение (доверие 5) [CBF62304]
Трек 14 точное извлечение (доверие 5) [C713317A]
Трек 15 точное извлечение (доверие 5) [C386D985]
Трек 16 точное извлечение (доверие 5) [DF781F82]
Трек 17 точное извлечение (доверие 5) [EA76DD17]
Трек 18 точное извлечение (доверие 5) [E4E78F1A]

Все треки извлечены точно

Конец отчёта

REM GENRE “Classic Rock”
REM DATE 2009
REM DISCID EE117012
REM COMMENT “ExactAudioCopy v0.99pb5”
PERFORMER “Europe”
TITLE “The Final Countdown The Best Of Europe CD1”
FILE “Europe – The Final Countdown The Best Of Europe CD1.flac” WAVE
TRACK 01 AUDIO
TITLE “The Final Countdown”
PERFORMER “Europe”
INDEX 01 00:00:00
TRACK 02 AUDIO
TITLE “Carrie”
PERFORMER “Europe”
INDEX 00 05:10:22
INDEX 01 05:11:73
TRACK 03 AUDIO
TITLE “Rock The Night”
PERFORMER “Europe”
INDEX 00 09:42:16
INDEX 01 09:43:67
TRACK 04 AUDIO
TITLE “Superstitious”
PERFORMER “Europe”
INDEX 00 13:48:18
INDEX 01 13:49:69
TRACK 05 AUDIO
TITLE “Love Chaser”
PERFORMER “Europe”
INDEX 00 18:23:36
INDEX 01 18:25:12
TRACK 06 AUDIO
TITLE “Cherokee”
PERFORMER “Europe”
INDEX 00 21:51:50
INDEX 01 21:53:26
TRACK 07 AUDIO
TITLE “Open Your Heart”
PERFORMER “Europe”
INDEX 00 26:04:09
INDEX 01 26:05:60
TRACK 08 AUDIO
TITLE “Let The Good Times Rock”
PERFORMER “Europe”
INDEX 00 30:07:21
INDEX 01 30:08:72
TRACK 09 AUDIO
TITLE “Sign Of The Times”
PERFORMER “Europe”
INDEX 00 34:12:26
INDEX 01 34:14:02
TRACK 10 AUDIO
TITLE “More Than Meets The Eye”
PERFORMER “Europe”
INDEX 00 38:28:47
INDEX 01 38:30:23
TRACK 11 AUDIO
TITLE “Tomorrow”
PERFORMER “Europe”
INDEX 00 41:50:56
INDEX 01 41:52:32
TRACK 12 AUDIO
TITLE “Prisoners In Paradise (Single Edit)”
PERFORMER “Europe”
INDEX 00 44:57:05
INDEX 01 44:58:56
TRACK 13 AUDIO
TITLE “I’ll Cry For You (Radio Edit)”
PERFORMER “Europe”
INDEX 00 49:28:33
INDEX 01 49:30:09
TRACK 14 AUDIO
TITLE “Halfway To Heaven”
PERFORMER “Europe”
INDEX 00 53:39:18
INDEX 01 53:40:69
TRACK 15 AUDIO
TITLE “Sweet Love Child (Previously Unreleased)”
PERFORMER “Europe”
INDEX 00 57:47:44
INDEX 01 57:49:20
TRACK 16 AUDIO
TITLE “The Final Countdown 2000”
PERFORMER “Europe”
INDEX 00 62:46:67
INDEX 01 62:48:42
TRACK 17 AUDIO
TITLE “Time Has Come”
PERFORMER “Europe”
INDEX 00 66:35:32
INDEX 01 66:37:08
TRACK 18 AUDIO
TITLE “Heart Of Stone”
PERFORMER “Europe”
INDEX 00 70:35:35
INDEX 01 70:37:11

REM GENRE “Classic Rock”
REM DATE 2009
REM DISCID E711A012
REM COMMENT “ExactAudioCopy v0.99pb5”
PERFORMER “Europe”
TITLE “The Final Countdown The Best Of Europe CD2”
FILE “Europe – The Final Countdown The Best Of Europe CD2.flac” WAVE
TRACK 01 AUDIO
TITLE “On Broken Wings”
PERFORMER “Europe”
INDEX 01 00:00:00
TRACK 02 AUDIO
TITLE “In The Future To Come”
PERFORMER “Europe”
INDEX 00 03:44:37
INDEX 01 03:45:50
TRACK 03 AUDIO
TITLE “Seven Doors Hotel”
PERFORMER “Europe”
INDEX 00 08:46:16
INDEX 01 08:47:30
TRACK 04 AUDIO
TITLE “Stormwind”
PERFORMER “Europe”
INDEX 00 14:02:67
INDEX 01 14:04:06
TRACK 05 AUDIO
TITLE “Scream Of Anger”
PERFORMER “Europe”
INDEX 00 18:27:32
INDEX 01 18:28:45
TRACK 06 AUDIO
TITLE “Dreamer”
PERFORMER “Europe”
INDEX 00 22:33:00
INDEX 01 22:34:13
TRACK 07 AUDIO
TITLE “Ninja”
PERFORMER “Europe”
INDEX 00 26:53:72
INDEX 01 26:55:10
TRACK 08 AUDIO
TITLE “Coast To Coast”
PERFORMER “Europe”
INDEX 00 30:40:55
INDEX 01 30:41:69
TRACK 09 AUDIO
TITLE “Ready Or Not”
PERFORMER “Europe”
INDEX 00 34:41:54
INDEX 01 34:42:67
TRACK 10 AUDIO
TITLE “Seventh Sign”
PERFORMER “Europe”
INDEX 00 38:46:49
INDEX 01 38:47:62
TRACK 11 AUDIO
TITLE “Got Your Mind In The Gutter”
PERFORMER “Europe”
INDEX 00 43:29:14
INDEX 01 43:30:27
TRACK 12 AUDIO
TITLE “Aphasia”
PERFORMER “Europe”
INDEX 00 48:29:39
INDEX 01 48:30:53
TRACK 13 AUDIO
TITLE “A Long Time Comin'”
PERFORMER “Europe”
INDEX 00 51:00:72
INDEX 01 51:02:10
TRACK 14 AUDIO
TITLE “Girl From Lebanon”
PERFORMER “Europe”
INDEX 00 54:56:74
INDEX 01 54:58:13
TRACK 15 AUDIO
TITLE “Wings Of Tomorrow”
PERFORMER “Europe”
INDEX 00 59:18:74
INDEX 01 59:20:12
TRACK 16 AUDIO
TITLE “Danger On The Track”
PERFORMER “Europe”
INDEX 00 63:17:40
INDEX 01 63:18:53
TRACK 17 AUDIO
TITLE “Never Say Die”
PERFORMER “Europe”
INDEX 00 67:04:50
INDEX 01 67:05:63
TRACK 18 AUDIO
TITLE “Lights And Shadows ”
PERFORMER “Europe”
INDEX 00 71:06:20
INDEX 01 71:07:34

Leave a Reply

Your email address will not be published. Required fields are marked *

This site uses Akismet to reduce spam. Learn how your comment data is processed.