Europe – Secret Society (Japanese Edition)




Artist: Europe
Year: 2006
Genre: Rock
Notes: Discogs
Add. Notes: Japanese Edition
Cover incl.: Yes
Encoder: FLAC
Bitrate: ~1000 kBit/s (44.1 kHz/16 Bit/s)
Log & Cue incl.: Yes
Size: 418,15 MB
Password: “slam” (without ” “)


All Downloads/Hosters are compatible

Download 1
Turbobit.net
Rapidgator.net
UploadByte.com
UploadEver.com
JustUpload.io
Download 2
Turbobit.net
Rapidgator.net
UploadByte.com
UploadEver.com
JustUpload.io
Download 3
Turbobit.net
Rapidgator.net
UploadByte.com
UploadEver.com
JustUpload.io

Tracklist:

1 - Secret Society - 3:37
2 - Always The Pretenders - 3:55
3 - The Getaway Plan - 3:53
4 - Wish I Could Believe - 3:35
5 - Let The Children Play - 4:12
6 - Human After All - 4:14
7 - Love Is Not The Enemy - 4:19
8 - A Mother's Son - 4:49
9 - Forever Travelling - 4:12
10 - Brave And Beautiful Soul - 3:48
11 - Devil Sings The Blues - 5:24
12 - Start From The Dark (Live At Shibuya AX) - 4:28

EAC-Log, CUE-Sheed & NFO:

Click to open spoiler
Exact Audio Copy V1.0 beta 2 from 29. April 2011

EAC extraction logfile from 22. November 2011, 17:30

Europe / Secret Society [VICP-63631]

Used drive : Optiarc DVD RW AD-5260S Adapter: 1 ID: 1

Read mode : Secure
Utilize accurate stream : Yes
Defeat audio cache : Yes
Make use of C2 pointers : No

Read offset correction : 48
Overread into Lead-In and Lead-Out : No
Fill up missing offset samples with silence : Yes
Delete leading and trailing silent blocks : No
Null samples used in CRC calculations : Yes
Used interface : Installed external ASPI interface

Used output format : Internal WAV Routines
Sample format : 44.100 Hz; 16 Bit; Stereo

TOC of the extracted CD

Track | Start | Length | Start sector | End sector
———————————————————
1 | 0:00.00 | 3:35.63 | 0 | 16187
2 | 3:35.63 | 3:54.48 | 16188 | 33785
3 | 7:30.36 | 3:52.06 | 33786 | 51191
4 | 11:22.42 | 3:34.37 | 51192 | 67278
5 | 14:57.04 | 4:11.01 | 67279 | 86104
6 | 19:08.05 | 4:13.46 | 86105 | 105125
7 | 23:21.51 | 4:17.53 | 105126 | 124453
8 | 27:39.29 | 4:49.16 | 124454 | 146144
9 | 32:28.45 | 4:12.06 | 146145 | 165050
10 | 36:40.51 | 3:46.54 | 165051 | 182054
11 | 40:27.30 | 5:24.39 | 182055 | 206393
12 | 45:51.69 | 4:28.34 | 206394 | 226527

Range status and errors

Selected range

Filename D:\EAC\Europe – Secret Society [VICP-63631].wav

Peak level 99.8 %
Extraction speed 3.7 X
Range quality 100.0 %
Test CRC 76E724FA
Copy CRC 76E724FA
Copy OK

No errors occurred

AccurateRip summary

Track 1 accurately ripped (confidence 2) [F0745983] (AR v1)
Track 2 accurately ripped (confidence 2) [E890987B] (AR v1)
Track 3 accurately ripped (confidence 2) [A452CC6F] (AR v1)
Track 4 accurately ripped (confidence 2) [3CC8BAD7] (AR v1)
Track 5 accurately ripped (confidence 2) [C5B1503D] (AR v1)
Track 6 accurately ripped (confidence 2) [F5D9B1C8] (AR v1)
Track 7 accurately ripped (confidence 2) [6B132D73] (AR v1)
Track 8 accurately ripped (confidence 2) [B5437820] (AR v1)
Track 9 accurately ripped (confidence 2) [64C429A1] (AR v1)
Track 10 accurately ripped (confidence 2) [9D92168E] (AR v1)
Track 11 accurately ripped (confidence 2) [02AD4817] (AR v1)
Track 12 accurately ripped (confidence 2) [0DD15B35] (AR v1)

All tracks accurately ripped

End of status report

==== Log checksum CF3B421365C7872B7677EB673E318B03F0F8F8AF6988025B856FB403F2C1AC0A ====

REM GENRE “Hard Rock”
REM DATE 2006
REM DISCID 970BCC0C
REM COMMENT “ExactAudioCopy v1.0b2”
CATALOG 4988002515776
PERFORMER “Europe”
TITLE “Secret Society [VICP-63631]”
FILE “Europe – Secret Society [VICP-63631].flac” WAVE
TRACK 01 AUDIO
TITLE “Secret Society”
PERFORMER “Europe”
ISRC GBAJE0609660
INDEX 01 00:00:00
TRACK 02 AUDIO
TITLE “Always the Pretenders”
PERFORMER “Europe”
ISRC GBAJE0609661
INDEX 01 03:35:63
TRACK 03 AUDIO
TITLE “The Getaway Plan”
PERFORMER “Europe”
ISRC GBAJE0609666
INDEX 00 07:29:57
INDEX 01 07:30:36
TRACK 04 AUDIO
TITLE “Wish I Could Believe”
PERFORMER “Europe”
ISRC GBAJE0609663
INDEX 00 11:21:58
INDEX 01 11:22:42
TRACK 05 AUDIO
TITLE “Let the Children Play”
PERFORMER “Europe”
ISRC GBAJE0609664
INDEX 00 14:55:47
INDEX 01 14:57:04
TRACK 06 AUDIO
TITLE “Human After All”
PERFORMER “Europe”
ISRC GBAJE0609665
INDEX 00 19:07:32
INDEX 01 19:08:05
TRACK 07 AUDIO
TITLE “Love Is Not the Enemy”
PERFORMER “Europe”
ISRC GBAJE0609662
INDEX 00 23:21:00
INDEX 01 23:21:51
TRACK 08 AUDIO
TITLE “A Mother’s Son”
PERFORMER “Europe”
ISRC GBAJE0609667
INDEX 00 27:38:50
INDEX 01 27:39:29
TRACK 09 AUDIO
TITLE “Forever Traveling”
PERFORMER “Europe”
ISRC GBAJE0609668
INDEX 00 32:27:13
INDEX 01 32:28:45
TRACK 10 AUDIO
TITLE “Brave and Beautiful Soul”
PERFORMER “Europe”
ISRC GBAJE0609669
INDEX 00 36:39:36
INDEX 01 36:40:51
TRACK 11 AUDIO
TITLE “Devil Sings the Blues”
PERFORMER “Europe”
ISRC GBAJE0609670
INDEX 00 40:27:04
INDEX 01 40:27:30
TRACK 12 AUDIO
TITLE “Start From The Dark (Live At Shibuya AX) [Bonus Track For Japan]”
PERFORMER “Europe”
INDEX 00 45:50:06
INDEX 01 45:51:69

Leave a Reply

Your email address will not be published. Required fields are marked *

Enter the text from the image below
 

This site uses Akismet to reduce spam. Learn how your comment data is processed.