Europe – Prisoners In Paradise (Japanese Edition)




Artist: Europe
Year: 1991
Genre: Rock
Notes: Discogs
Add. Notes: Japanese Edition
Cover incl.: Yes
Encoder: FLAC
Bitrate: ~1000 kBit/s (44.1 kHz/16 Bit/s)
Log & Cue incl.: Yes
Size: 485,87 MB
Password: “slam” (without ” “)


All Downloads/Hosters are compatible

Download 1
Turbobit.net
Rapidgator.net
UploadByte.com
UploadEver.com
JustUpload.io
Download 2
Turbobit.net
Rapidgator.net
UploadByte.com
UploadEver.com
JustUpload.io
Download 3
Turbobit.net
Rapidgator.net
UploadByte.com
UploadEver.com
JustUpload.io

Tracklist:

1 - All Or Nothing - 3:55
2 - Halfway To Heaven - 4:07
3 - I'll Cry For You - 5:21
4 - Little Bit Of Lovin' - 4:48
5 - Talk To Me - 4:07
6 - Seventh Sign - 4:43
7 - Prisoners In Paradise - 5:37
8 - Bad Blood - 4:20
9 - Homeland - 4:51
10 - Got Your Mind In The Gutter - 5:00
11 - 'Til My Heart Beats Down Your Door - 3:48
12 - Girl From Lebanon - 4:21
Bonus Tracks
13 - Break Free  - 4:05
14 - Yesterday's News  - 5:27

EAC-Log, CUE-Sheed & NFO:

Click to open spoiler
Exact Audio Copy V0.99 prebeta 5 from 4. May 2009

EAC extraction logfile from 25. March 2010, 15:38

Europe / Prisoners In Paradise

Used drive : ASUS DRW-1608P Adapter: 2 ID: 1

Read mode : Secure
Utilize accurate stream : Yes
Defeat audio cache : Yes
Make use of C2 pointers : No

Read offset correction : 48
Overread into Lead-In and Lead-Out : No
Fill up missing offset samples with silence : Yes
Delete leading and trailing silent blocks : No
Null samples used in CRC calculations : Yes
Used interface : Installed external ASPI interface

Used output format : User Defined Encoder
Selected bitrate : 1024 kBit/s
Quality : High
Add ID3 tag : No
Command line compressor : C:\Program Files (x86)\Exact Audio Copy\Flac\flac.exe
Additional command line options : -5 -V -T “ARTIST=%a” -T “TITLE=%t” -T “ALBUM=%g” -T “DATE=%y” -T “TRACKNUMBER=%n” -T “GENRE=%m” -T “COMMENT=EAC FLAC -5” %s

TOC of the extracted CD

Track | Start | Length | Start sector | End sector
———————————————————
1 | 0:00.00 | 3:54.62 | 0 | 17611
2 | 3:54.62 | 4:06.28 | 17612 | 36089
3 | 8:01.15 | 5:21.47 | 36090 | 60211
4 | 13:22.62 | 4:48.18 | 60212 | 81829
5 | 18:11.05 | 4:06.70 | 81830 | 100349
6 | 22:18.00 | 4:42.37 | 100350 | 121536
7 | 27:00.37 | 5:36.70 | 121537 | 146806
8 | 32:37.32 | 4:20.00 | 146807 | 166306
9 | 36:57.32 | 4:51.15 | 166307 | 188146
10 | 41:48.47 | 4:59.58 | 188147 | 210629
11 | 46:48.30 | 3:47.32 | 210630 | 227686
12 | 50:35.62 | 4:23.13 | 227687 | 247424
13 | 54:59.00 | 4:05.55 | 247425 | 265854
14 | 59:04.55 | 5:27.15 | 265855 | 290394

Range status and errors

Selected range

Filename F:\Europe – Prisoners In Paradise – 1991 (Japan)\Europe – Prisoners In Paradise.wav

Peak level 99.8 %
Range quality 100.0 %
Test CRC A8242F93
Copy CRC A8242F93
Copy OK

No errors occurred

AccurateRip summary

Track 1 accurately ripped (confidence 1) [6A661868]
Track 2 accurately ripped (confidence 1) [8475FCB7]
Track 3 accurately ripped (confidence 1) [7C958C9A]
Track 4 accurately ripped (confidence 1) [16610765]
Track 5 accurately ripped (confidence 1) [621BF1B8]
Track 6 accurately ripped (confidence 1) [C15697C8]
Track 7 accurately ripped (confidence 1) [4C73BB64]
Track 8 accurately ripped (confidence 1) [27726716]
Track 9 accurately ripped (confidence 1) [56AE007C]
Track 10 accurately ripped (confidence 1) [9B00EBD3]
Track 11 accurately ripped (confidence 1) [6CCDA7E5]
Track 12 accurately ripped (confidence 1) [981BDE6C]
Track 13 accurately ripped (confidence 1) [081FE19B]
Track 14 accurately ripped (confidence 1) [1FC0E58E]

All tracks accurately ripped

End of status report

REM GENRE “Hard Rock”
REM DATE 1991
REM DISCID A70F1F0E
REM COMMENT “ExactAudioCopy v0.99pb5”
PERFORMER “Europe”
TITLE “Prisoners In Paradise”
FILE “Europe – Prisoners In Paradise.flac” WAVE
TRACK 01 AUDIO
TITLE “All Or Nothing”
PERFORMER “Europe”
INDEX 01 00:00:00
TRACK 02 AUDIO
TITLE “Halfway To Heaven”
PERFORMER “Europe”
INDEX 01 03:54:62
TRACK 03 AUDIO
TITLE “I’ll Cry For You”
PERFORMER “Europe”
INDEX 01 08:01:15
TRACK 04 AUDIO
TITLE “Give A Little Bit Of Lovin'”
PERFORMER “Europe”
INDEX 01 13:22:62
TRACK 05 AUDIO
TITLE “Talk To Me”
PERFORMER “Europe”
INDEX 01 18:11:05
TRACK 06 AUDIO
TITLE “Seventh Sign”
PERFORMER “Europe”
INDEX 01 22:18:00
TRACK 07 AUDIO
TITLE “Prisoners In Paradise”
PERFORMER “Europe”
INDEX 01 27:00:37
TRACK 08 AUDIO
TITLE “Bad Blood”
PERFORMER “Europe”
INDEX 01 32:37:32
TRACK 09 AUDIO
TITLE “Homeland”
PERFORMER “Europe”
INDEX 01 36:57:32
TRACK 10 AUDIO
TITLE “Got Your Mind In The Gutter”
PERFORMER “Europe”
INDEX 01 41:48:47
TRACK 11 AUDIO
TITLE “‘Til My Heart Beats Down Your Door”
PERFORMER “Europe”
INDEX 01 46:48:30
TRACK 12 AUDIO
TITLE “Girl From Lebanon”
PERFORMER “Europe”
INDEX 01 50:35:62
TRACK 13 AUDIO
TITLE “Break Free”
PERFORMER “Europe”
INDEX 00 54:57:00
INDEX 01 54:59:00
TRACK 14 AUDIO
TITLE “Yesterday’s News”
PERFORMER “Europe”
INDEX 01 59:04:55

Leave a Reply

Your email address will not be published. Required fields are marked *

This site uses Akismet to reduce spam. Learn how your comment data is processed.