Europe – Out of This World (Japanese Edition)




Artist: Europe
Year: 1988
Genre: Rock
Notes: Discogs
Add. Notes: Japanese Edition
Cover incl.: Yes
Encoder: FLAC
Bitrate: ~1000 kBit/s (44.1 kHz/16 Bit/s)
Log & Cue incl.: Yes
Size: 344,66 MB
Password: “slam” (without ” “)


All Downloads/Hosters are compatible

Download 1
NitroFlare.com
KatFile.com
Turbobit.net
Rapidgator.net
UploadRar.com
Download 2
NitroFlare.com
KatFile.com
Turbobit.net
Rapidgator.net
UploadRar.com

Tracklist:

1 - Superstitious - 4:35
2 - Let The Good Times Rock - 4:04
3 - Open Your Heart - 4:04
4 - More Than Meets The Eye - 3:20
5 - Coast To Coast - 4:00
6 - Ready Or Not - 4:05
7 - Sign Of The Times - 4:15
8 - Just The Beginning - 4:32
9 - Never Say Die - 4:00
10 - Lights And Shadows - 4:04
11 - Tower's Callin' - 3:48
12 - Tomorrow - 3:04

EAC-Log, CUE-Sheed & NFO:

Click to open spoiler
Exact Audio Copy V0.99 prebeta 5 from 4. May 2009

Отчёт EAC об извлечении, выполненном 14. февраля 2010, 18:16

Europe / Out Of This World [VDPB-25001]

Дисковод: ASUS DRW-2014S1 Adapter: 0 ID: 0

Режим чтения : Достоверность
Использование точного потока : Да
Отключение кэша аудио : Да
Использование указателей C2 : Нет

Коррекция смещения при чтении : 6
Способность читать области Lead-in и Lead-out : Нет
Заполнение пропущенных сэмплов тишиной : Да
Удаление блоков с тишиной в начале и конце : Нет
При вычислениях CRC использовались нулевые сэмплы : Да
Интерфейс : Установленный внешний ASPI-интерфейс

Выходной формат : Пользовательский кодировщик
Выбранный битрейт : 128 kBit/s
Качество : Высокий
Добавление ID3-тэга : Нет
Утилита сжатия : C:\Program Files\Exact Audio Copy\Flac\flac.exe
Дополнительные параметры : -6 -V -T “artist=%a” -T “title=%t” -T “album=%g” -T “date=%y” -T “tracknumber=%n” -T “genre=%m” -T “comment=EAC 0.99beta5 / FLAC 1.1.0 q6” %s

TOC извлечённого CD

Трек | Старт | Длительность | Начальный сектор | Конечный сектор
———————————————————————
1 | 0:00.37 | 4:35.63 | 37 | 20724
2 | 4:36.25 | 4:04.15 | 20725 | 39039
3 | 8:40.40 | 4:04.50 | 39040 | 57389
4 | 12:45.15 | 3:21.60 | 57390 | 72524
5 | 16:07.00 | 4:01.50 | 72525 | 90649
6 | 20:08.50 | 4:05.60 | 90650 | 109084
7 | 24:14.35 | 4:15.55 | 109085 | 128264
8 | 28:30.15 | 4:32.52 | 128265 | 148716
9 | 33:02.67 | 4:00.55 | 148717 | 166771
10 | 37:03.47 | 4:03.60 | 166772 | 185056
11 | 41:07.32 | 3:50.25 | 185057 | 202331
12 | 44:57.57 | 3:07.08 | 202332 | 216364

Характеристики диапазона извлечения и сообщения об ошибках

Выбранный диапазон

Имя файла Y:\Музыка\Europe\1988 Out Of This World\Europe – Out Of This World [VDPB-25001].wav

Пиковый уровень 99.7 %
Качество диапазона 100.0 %
CRC копии 5422AD85
Копирование… OK

Ошибок не произошло

AccurateRip: сводка

Трек 1 точное извлечение (доверие 2) [9E329746]
Трек 2 точное извлечение (доверие 2) [5AB6CE24]
Трек 3 точное извлечение (доверие 2) [2FB0F9B4]
Трек 4 точное извлечение (доверие 2) [0D699163]
Трек 5 точное извлечение (доверие 2) [AA127B5E]
Трек 6 точное извлечение (доверие 2) [0F347FA4]
Трек 7 точное извлечение (доверие 2) [242251AC]
Трек 8 точное извлечение (доверие 2) [3403EF8D]
Трек 9 точное извлечение (доверие 2) [973494C0]
Трек 10 точное извлечение (доверие 2) [E7E6E3D6]
Трек 11 точное извлечение (доверие 2) [653C4614]
Трек 12 точное извлечение (доверие 2) [2923F471]

Все треки извлечены точно

Конец отчёта

REM GENRE “Hard ‘n’ Heavy”
REM DATE 1988
REM DISCID B70B440C
REM COMMENT “ExactAudioCopy v0.99pb5”
CATALOG 0000000000000
PERFORMER “Europe”
TITLE “Out Of This World [VDPB-25001]”
FILE “Europe – Out Of This World [VDPB-25001].flac” WAVE
TRACK 01 AUDIO
TITLE “Superstitious”
PERFORMER “Europe”
INDEX 00 00:00:00
INDEX 01 00:00:37
TRACK 02 AUDIO
TITLE “Let The Good Times Rock”
PERFORMER “Europe”
INDEX 01 04:36:25
TRACK 03 AUDIO
TITLE “Open Your Heart”
PERFORMER “Europe”
INDEX 01 08:40:40
TRACK 04 AUDIO
TITLE “More Than Meets The Eye”
PERFORMER “Europe”
INDEX 00 12:44:63
INDEX 01 12:45:15
TRACK 05 AUDIO
TITLE “Coast To Coast”
PERFORMER “Europe”
INDEX 00 16:06:28
INDEX 01 16:07:00
TRACK 06 AUDIO
TITLE “Ready Or Not”
PERFORMER “Europe”
INDEX 00 20:08:38
INDEX 01 20:08:50
TRACK 07 AUDIO
TITLE “Sign Of The Times”
PERFORMER “Europe”
INDEX 00 24:13:73
INDEX 01 24:14:35
TRACK 08 AUDIO
TITLE “Just The Beginning”
PERFORMER “Europe”
INDEX 01 28:30:15
TRACK 09 AUDIO
TITLE “Never Say Die”
PERFORMER “Europe”
INDEX 01 33:02:67
TRACK 10 AUDIO
TITLE “Lights And Shadows”
PERFORMER “Europe”
INDEX 00 37:03:35
INDEX 01 37:03:47
TRACK 11 AUDIO
TITLE “Tower’s Callin'”
PERFORMER “Europe”
INDEX 01 41:07:32
TRACK 12 AUDIO
TITLE “Tomorrow”
PERFORMER “Europe”
INDEX 00 44:56:50
INDEX 01 44:57:57


Leave a Reply

Your email address will not be published. Required fields are marked *

Enter the text from the image below
 

This site uses Akismet to reduce spam. Learn how your comment data is processed.