Europe – Live Look At Eden




Artist: Europe
Year: 2011
Genre: Rock
Notes: Discogs
Add. Notes:
Cover incl.: Yes
Encoder: FLAC
Bitrate: ~1100 kBit/s (44.1 kHz/16 Bit/s)
Log & Cue incl.: Yes
Size: 402,95 MB
Password: “slam” (without ” “)


All Downloads/Hosters are compatible

Download 1
Turbobit.net
Rapidgator.net
UploadEver.com
KatFile.com
UsersDrive.com
Download 2
Turbobit.net
Rapidgator.net
UploadEver.com
KatFile.com
UsersDrive.com
Download 3
Turbobit.net
Rapidgator.net
UploadEver.com
KatFile.com
UsersDrive.com

Tracklist:

1 - Last Look At Eden - 5:29
2 - Love Is Not The Enemy - 4:23
3 - Superstitious - 5:28
4 - Scream Of Anger - 4:40
5 - No Stone Unturned - 5:38
6 - New Love In Town - 3:33
7 - Seventh Sign - 6:27
8 - Rock The Night - 6:00
9 - The Beast - 3:27
10 - The Final Countdown - 6:04

EAC-Log, CUE-Sheed & NFO:

Click to open spoiler
Exact Audio Copy V1.0 beta 2 from 29. April 2011

EAC extraction logfile from 29. November 2011, 18:34

Europe / Live Look At Eden [0206949ERE]

Used drive : Optiarc DVD RW AD-5260S Adapter: 1 ID: 1

Read mode : Secure
Utilize accurate stream : Yes
Defeat audio cache : Yes
Make use of C2 pointers : No

Read offset correction : 48
Overread into Lead-In and Lead-Out : No
Fill up missing offset samples with silence : Yes
Delete leading and trailing silent blocks : No
Null samples used in CRC calculations : Yes
Used interface : Installed external ASPI interface

Used output format : Internal WAV Routines
Sample format : 44.100 Hz; 16 Bit; Stereo

TOC of the extracted CD

Track | Start | Length | Start sector | End sector
———————————————————
1 | 0:00.00 | 5:29.16 | 0 | 24690
2 | 5:29.16 | 4:23.34 | 24691 | 44449
3 | 9:52.50 | 5:28.12 | 44450 | 69061
4 | 15:20.62 | 4:40.45 | 69062 | 90106
5 | 20:01.32 | 5:38.20 | 90107 | 115476
6 | 25:39.52 | 3:32.72 | 115477 | 131448
7 | 29:12.49 | 6:27.41 | 131449 | 160514
8 | 35:40.15 | 6:00.45 | 160515 | 187559
9 | 41:40.60 | 3:27.40 | 187560 | 203124
10 | 45:08.25 | 6:04.52 | 203125 | 230476

Range status and errors

Selected range

Filename D:\EAC\Europe – Live Look At Eden [0206949ERE].wav

Peak level 100.0 %
Extraction speed 3.9 X
Range quality 99.9 %
Test CRC 5BF14FF3
Copy CRC 5BF14FF3
Copy OK

No errors occurred

AccurateRip summary

Track 1 accurately ripped (confidence 1) [0ACA4C21] (AR v1)
Track 2 accurately ripped (confidence 1) [30D7BAC3] (AR v1)
Track 3 accurately ripped (confidence 1) [97BB3DC0] (AR v1)
Track 4 accurately ripped (confidence 1) [418CAC34] (AR v1)
Track 5 accurately ripped (confidence 1) [2B4CC7D9] (AR v1)
Track 6 accurately ripped (confidence 1) [A692AD27] (AR v1)
Track 7 accurately ripped (confidence 1) [82D52E94] (AR v1)
Track 8 accurately ripped (confidence 1) [A4C006C5] (AR v1)
Track 9 accurately ripped (confidence 1) [555D58EE] (AR v1)
Track 10 accurately ripped (confidence 1) [66C162D7] (AR v1)

All tracks accurately ripped

End of status report

==== Log checksum 7658E1FB90ADB40CE623564A36594265643F2630BF3057E4491F3C26725D3699 ====
,REM GENRE “Hard Rock”
REM DATE 2011
REM DISCID 660C010A
REM COMMENT “ExactAudioCopy v1.0b2”
PERFORMER “Europe”
TITLE “Live Look At Eden [0206949ERE]”
FILE “Europe – Live Look At Eden [0206949ERE].flac” WAVE
TRACK 01 AUDIO
TITLE “Last Look At Eden”
PERFORMER “Europe”
ISRC SEWEK1100101
INDEX 01 00:00:00
TRACK 02 AUDIO
TITLE “Love Is Not The Enemy”
PERFORMER “Europe”
ISRC DEH841000280
INDEX 01 05:29:16
TRACK 03 AUDIO
TITLE “Superstitious”
PERFORMER “Europe”
ISRC DEH841000281
INDEX 01 09:52:50
TRACK 04 AUDIO
TITLE “Scream Of Anger”
PERFORMER “Europe”
ISRC SEWEK1100104
INDEX 00 15:18:50
INDEX 01 15:20:62
TRACK 05 AUDIO
TITLE “No Stone Unturned”
PERFORMER “Europe”
ISRC SEWEK1100105
INDEX 01 20:01:32
TRACK 06 AUDIO
TITLE “New Love In Town”
PERFORMER “Europe”
ISRC DEH841000276
INDEX 00 25:37:40
INDEX 01 25:39:52
TRACK 07 AUDIO
TITLE “Seventh Sign”
PERFORMER “Europe”
ISRC SEWEK1100107
INDEX 01 29:12:49
TRACK 08 AUDIO
TITLE “Rock The Night”
PERFORMER “Europe”
ISRC SEWEK1100108
INDEX 01 35:40:15
TRACK 09 AUDIO
TITLE “The Beast”
PERFORMER “Europe”
ISRC SEWEK1100109
INDEX 00 41:38:48
INDEX 01 41:40:60
TRACK 10 AUDIO
TITLE “The Final Countdown”
PERFORMER “Europe”
ISRC SEWEK1100110
INDEX 01 45:08:25


Leave a Reply

Your email address will not be published. Required fields are marked *

This site uses Akismet to reduce spam. Learn how your comment data is processed.