Europe – Live At Sweden Rock (30th Anniversary Show)




No Cover available

Artist: Europe
Year: 2013
Genre: Rock
Notes: Discogs
Add. Notes:
Watch Songs on: YouTube
Cover incl.: Yes
Encoder: FLAC
Bitrate: ~1000 kBit/s (44.1 kHz/16 Bit/s)
Log & Cue incl.: Yes
Size: 2039,16 MB
Password: “slam” (without ” “)


All Downloads/Hosters are compatible

Download 1
KatFile.com
Turbobit.net
FileFactory.com
Rapidgator.net
Download 2
KatFile.com
Turbobit.net
FileFactory.com
Rapidgator.net

Tracklist:

1-1.  Intro / Riches To Rags  
1-2.  Firebox  
1-3.  Not Supposed To Sing The Blues  
1-4. Scream Of Anger  
1-5.  Superstitious  
1-6.  No Stone Unturned  
1-7.  New Love In Town  
1-8.  In The Future To Come  
1-9.  Paradize Bay  
1-10.  Girl From Lebanon  
1-11.  Prisoners In Paradise  
1-12.  Always The Pretenders  
1-13.  Drink And A Smile (Acoustic)  
1-14.  Open Your Heart (Acoustic)  
1-15.  Love Is Not The Enemy  
1-16.  Sign Of The Times  
2-1.  Start From The Dark  
2-2. Wings Of Tomorrow  
2-3.  Carrie  
2-4.  Jailbreak  
2-5.  Seven Doors Hotel  
2-6.  Drum Solo  
2-7.  The Beast  
2-8.  Let The Good Times Rock  
2-9.  Lights Out  
2-10.  Rock The Night  
2-11.  Last Look At Eden  
2-12.  The Final Countdown

EAC-Log, CUE-Sheed & NFO:

Click to open spoiler
Exact Audio Copy V0.99 prebeta 5 from 4. May 2009

EAC extraction logfile from 15. April 2015, 15:20

Europe / Live At Sweden Rock – Disc 1

Used drive : ATAPI CD-RW 48X16 Adapter: 1 ID: 0

Read mode : Secure
Utilize accurate stream : Yes
Defeat audio cache : Yes
Make use of C2 pointers : No

Read offset correction : 12
Overread into Lead-In and Lead-Out : No
Fill up missing offset samples with silence : Yes
Delete leading and trailing silent blocks : No
Null samples used in CRC calculations : Yes
Used interface : Installed external ASPI interface
Gap handling : Appended to previous track

Used output format : Internal WAV Routines
Sample format : 44.100 Hz; 16 Bit; Stereo

TOC of the extracted CD

Track | Start | Length | Start sector | End sector
———————————————————
1 | 0:00.00 | 4:02.37 | 0 | 18186
2 | 4:02.37 | 4:00.23 | 18187 | 36209
3 | 8:02.60 | 5:27.06 | 36210 | 60740
4 | 13:29.66 | 4:35.06 | 60741 | 81371
5 | 18:04.72 | 5:58.62 | 81372 | 108283
6 | 24:03.59 | 5:46.15 | 108284 | 134248
7 | 29:49.74 | 3:43.33 | 134249 | 151006
8 | 33:33.32 | 5:44.35 | 151007 | 176841
9 | 39:17.67 | 4:21.34 | 176842 | 196450
10 | 43:39.26 | 5:50.01 | 196451 | 222701
11 | 49:29.27 | 4:43.15 | 222702 | 243941
12 | 54:12.42 | 4:38.34 | 243942 | 264825
13 | 58:51.01 | 2:49.10 | 264826 | 277510
14 | 61:40.11 | 3:53.18 | 277511 | 295003
15 | 65:33.29 | 4:33.66 | 295004 | 315544
16 | 70:07.20 | 4:35.02 | 315545 | 336171

Track 1

Filename C:\Music\Europe – Live At Sweden Rock (2013)\Disc 1\01. Intro,Riches To Rags.wav

Pre-gap length 0:00:02.00

Peak level 100.0 %
Track quality 100.0 %
Copy CRC DA66E3F5
Cannot be verified as accurate (confidence 7) [1FE90BF2], AccurateRip returned [77C57072]
Copy OK

Track 2

Filename C:\Music\Europe – Live At Sweden Rock (2013)\Disc 1\02. Firebox.wav

Peak level 100.0 %
Track quality 100.0 %
Copy CRC 18CA3940
Cannot be verified as accurate (confidence 7) [D576E127], AccurateRip returned [66C7A9D9]
Copy OK

Track 3

Filename C:\Music\Europe – Live At Sweden Rock (2013)\Disc 1\03. Not Supposed To Sing The Blues.wav

Peak level 100.0 %
Track quality 99.9 %
Copy CRC FF114B8C
Cannot be verified as accurate (confidence 7) [AA39645D], AccurateRip returned [8841CAAF]
Copy OK

Track 4

Filename C:\Music\Europe – Live At Sweden Rock (2013)\Disc 1\04. Scream Of Anger.wav

Peak level 100.0 %
Track quality 100.0 %
Copy CRC D41344A5
Cannot be verified as accurate (confidence 7) [DF8407D9], AccurateRip returned [2FC734C0]
Copy OK

Track 5

Filename C:\Music\Europe – Live At Sweden Rock (2013)\Disc 1\05. Superstitious.wav

Peak level 100.0 %
Track quality 100.0 %
Copy CRC 4A4CBEA0
Cannot be verified as accurate (confidence 7) [72BDC9DA], AccurateRip returned [972F4381]
Copy OK

Track 6

Filename C:\Music\Europe – Live At Sweden Rock (2013)\Disc 1\06. No Stone Unturned.wav

Peak level 100.0 %
Track quality 100.0 %
Copy CRC 4C6E89B3
Cannot be verified as accurate (confidence 7) [86AE3A81], AccurateRip returned [5D49B3EC]
Copy OK

Track 7

Filename C:\Music\Europe – Live At Sweden Rock (2013)\Disc 1\07. New Love In Town.wav

Peak level 100.0 %
Track quality 100.0 %
Copy CRC 3DDB05A1
Cannot be verified as accurate (confidence 7) [B43E5F78], AccurateRip returned [95E1B5E1]
Copy OK

Track 8

Filename C:\Music\Europe – Live At Sweden Rock (2013)\Disc 1\08. In The Future To Come.wav

Peak level 100.0 %
Track quality 100.0 %
Copy CRC A7940714
Cannot be verified as accurate (confidence 7) [B8D19262], AccurateRip returned [8726923B]
Copy OK

Track 9

Filename C:\Music\Europe – Live At Sweden Rock (2013)\Disc 1\09. Paradize Bay.wav

Peak level 100.0 %
Track quality 100.0 %
Copy CRC 9280F4FF
Cannot be verified as accurate (confidence 7) [9035216B], AccurateRip returned [B56E1D60]
Copy OK

Track 10

Filename C:\Music\Europe – Live At Sweden Rock (2013)\Disc 1\10. Girl From Lebanon.wav

Peak level 100.0 %
Track quality 99.9 %
Copy CRC E44E2872
Cannot be verified as accurate (confidence 7) [2754C771], AccurateRip returned [AB819CE5]
Copy OK

Track 11

Filename C:\Music\Europe – Live At Sweden Rock (2013)\Disc 1\11. Prisoners In Paradise.wav

Peak level 100.0 %
Track quality 100.0 %
Copy CRC 6CD7C323
Cannot be verified as accurate (confidence 7) [5ADB5327], AccurateRip returned [72C12FDD]
Copy OK

Track 12

Filename C:\Music\Europe – Live At Sweden Rock (2013)\Disc 1\12. Always The Pretenders.wav

Peak level 100.0 %
Track quality 100.0 %
Copy CRC 27D59D01
Cannot be verified as accurate (confidence 7) [5C21D89B], AccurateRip returned [9F040479]
Copy OK

Track 13

Filename C:\Music\Europe – Live At Sweden Rock (2013)\Disc 1\13. Drink And A Smile.wav

Peak level 100.0 %
Track quality 100.0 %
Copy CRC D17E5EA5
Cannot be verified as accurate (confidence 7) [58A1CEBD], AccurateRip returned [BA676DFC]
Copy OK

Track 14

Filename C:\Music\Europe – Live At Sweden Rock (2013)\Disc 1\14. Open Your Heart.wav

Peak level 100.0 %
Track quality 100.0 %
Copy CRC 9C982C35
Cannot be verified as accurate (confidence 7) [01AD9C32], AccurateRip returned [DF32B7D5]
Copy OK

Track 15

Filename C:\Music\Europe – Live At Sweden Rock (2013)\Disc 1\15. Love Is Not The Enemy.wav

Peak level 100.0 %
Track quality 100.0 %
Copy CRC CB9BB7B1
Cannot be verified as accurate (confidence 7) [556AFF3F], AccurateRip returned [0E8B2CB6]
Copy OK

Track 16

Filename C:\Music\Europe – Live At Sweden Rock (2013)\Disc 1\16. Sign Of The Times.wav

Peak level 100.0 %
Track quality 100.0 %
Copy CRC B6F3EB66
Cannot be verified as accurate (confidence 7) [9B7F351B], AccurateRip returned [37E90601]
Copy OK

No tracks could be verified as accurate
You may have a different pressing from the one(s) in the database

No errors occurred

End of status report

Exact Audio Copy V0.99 prebeta 5 from 4. May 2009

EAC extraction logfile from 15. April 2015, 15:50

Europe / Live At Sweden Rock – Disc 2

Used drive : ATAPI CD-RW 48X16 Adapter: 1 ID: 0

Read mode : Secure
Utilize accurate stream : Yes
Defeat audio cache : Yes
Make use of C2 pointers : No

Read offset correction : 12
Overread into Lead-In and Lead-Out : No
Fill up missing offset samples with silence : Yes
Delete leading and trailing silent blocks : No
Null samples used in CRC calculations : Yes
Used interface : Installed external ASPI interface
Gap handling : Appended to previous track

Used output format : Internal WAV Routines
Sample format : 44.100 Hz; 16 Bit; Stereo

TOC of the extracted CD

Track | Start | Length | Start sector | End sector
———————————————————
1 | 0:00.00 | 4:30.28 | 0 | 20277
2 | 4:30.28 | 4:46.30 | 20278 | 41757
3 | 9:16.58 | 5:06.24 | 41758 | 64731
4 | 14:23.07 | 4:58.24 | 64732 | 87105
5 | 19:21.31 | 5:22.32 | 87106 | 111287
6 | 24:43.63 | 5:02.01 | 111288 | 133938
7 | 29:45.64 | 3:22.24 | 133939 | 149112
8 | 33:08.13 | 5:24.09 | 149113 | 173421
9 | 38:32.22 | 5:09.06 | 173422 | 196602
10 | 43:41.28 | 6:13.51 | 196603 | 224628
11 | 49:55.04 | 4:37.06 | 224629 | 245409
12 | 54:32.10 | 6:24.30 | 245410 | 274239

Track 1

Filename C:\Music\Europe – Live At Sweden Rock (2013)\Disc 2\01. Start From The Dark.wav

Pre-gap length 0:00:02.00

Peak level 100.0 %
Track quality 100.0 %
Copy CRC 1B0ACB80
Cannot be verified as accurate (confidence 8) [1D31A8D7], AccurateRip returned [B53BBBC3]
Copy OK

Track 2

Filename C:\Music\Europe – Live At Sweden Rock (2013)\Disc 2\02. Wings Of Tomorrow.wav

Peak level 100.0 %
Track quality 100.0 %
Copy CRC 5EC945CD
Cannot be verified as accurate (confidence 8) [362851D4], AccurateRip returned [DCFCAD5C]
Copy OK

Track 3

Filename C:\Music\Europe – Live At Sweden Rock (2013)\Disc 2\03. Carrie.wav

Peak level 100.0 %
Track quality 100.0 %
Copy CRC 1278C625
Cannot be verified as accurate (confidence 8) [5E1848D9], AccurateRip returned [48996CEB]
Copy OK

Track 4

Filename C:\Music\Europe – Live At Sweden Rock (2013)\Disc 2\04. Jailbreak.wav

Peak level 100.0 %
Track quality 100.0 %
Copy CRC B037EF55
Cannot be verified as accurate (confidence 8) [5923E2BA], AccurateRip returned [55DF660C]
Copy OK

Track 5

Filename C:\Music\Europe – Live At Sweden Rock (2013)\Disc 2\05. Seven Doors Hotel.wav

Peak level 100.0 %
Track quality 99.9 %
Copy CRC A94BC69D
Cannot be verified as accurate (confidence 8) [7F3C2FEF], AccurateRip returned [012CBBDD]
Copy OK

Track 6

Filename C:\Music\Europe – Live At Sweden Rock (2013)\Disc 2\06. Drum Solo.wav

Peak level 100.0 %
Track quality 100.0 %
Copy CRC 25EEFD22
Cannot be verified as accurate (confidence 8) [26394D1E], AccurateRip returned [61CD8497]
Copy OK

Track 7

Filename C:\Music\Europe – Live At Sweden Rock (2013)\Disc 2\07. The Beast.wav

Peak level 100.0 %
Track quality 100.0 %
Copy CRC 3CBA7EE6
Cannot be verified as accurate (confidence 8) [39AE26EA], AccurateRip returned [76E1B53B]
Copy OK

Track 8

Filename C:\Music\Europe – Live At Sweden Rock (2013)\Disc 2\08. Let The Good Times Rock.wav

Peak level 100.0 %
Track quality 99.9 %
Copy CRC 3948C04A
Cannot be verified as accurate (confidence 8) [FDE32000], AccurateRip returned [4088E49B]
Copy OK

Track 9

Filename C:\Music\Europe – Live At Sweden Rock (2013)\Disc 2\09. Lights Out.wav

Peak level 100.0 %
Track quality 100.0 %
Copy CRC 30355563
Cannot be verified as accurate (confidence 8) [1E07FFAE], AccurateRip returned [F81CA980]
Copy OK

Track 10

Filename C:\Music\Europe – Live At Sweden Rock (2013)\Disc 2\10. Rock The Night.wav

Peak level 100.0 %
Track quality 100.0 %
Copy CRC 7E11A496
Cannot be verified as accurate (confidence 8) [720A42A9], AccurateRip returned [4AFD5CAB]
Copy OK

Track 11

Filename C:\Music\Europe – Live At Sweden Rock (2013)\Disc 2\11. Last Look At Eden.wav

Peak level 100.0 %
Track quality 100.0 %
Copy CRC EFFBDCFE
Cannot be verified as accurate (confidence 8) [426D6D7C], AccurateRip returned [211EB702]
Copy OK

Track 12

Filename C:\Music\Europe – Live At Sweden Rock (2013)\Disc 2\12. The Final Countdown.wav

Peak level 100.0 %
Track quality 100.0 %
Copy CRC C51B59F3
Cannot be verified as accurate (confidence 8) [CF357682], AccurateRip returned [4E45F9C4]
Copy OK

No tracks could be verified as accurate
You may have a different pressing from the one(s) in the database

No errors occurred

End of status report

REM GENRE “Hard Rock”
REM DATE 2013
REM DISCID D9118210
REM COMMENT “ExactAudioCopy v0.99pb5”
PERFORMER “Europe”
TITLE “Live At Sweden Rock – Disc 1”
FILE “01. Intro,Riches To Rags.wav” WAVE
TRACK 01 AUDIO
TITLE “Intro/Riches To Rags”
PERFORMER “Europe”
INDEX 01 00:00:00
FILE “02. Firebox.wav” WAVE
TRACK 02 AUDIO
TITLE “Firebox”
PERFORMER “Europe”
INDEX 01 00:00:00
FILE “03. Not Supposed To Sing The Blues.wav” WAVE
TRACK 03 AUDIO
TITLE “Not Supposed To Sing The Blues”
PERFORMER “Europe”
INDEX 01 00:00:00
FILE “04. Scream Of Anger.wav” WAVE
TRACK 04 AUDIO
TITLE “Scream Of Anger”
PERFORMER “Europe”
INDEX 01 00:00:00
FILE “05. Superstitious.wav” WAVE
TRACK 05 AUDIO
TITLE “Superstitious”
PERFORMER “Europe”
INDEX 01 00:00:00
FILE “06. No Stone Unturned.wav” WAVE
TRACK 06 AUDIO
TITLE “No Stone Unturned”
PERFORMER “Europe”
INDEX 01 00:00:00
FILE “07. New Love In Town.wav” WAVE
TRACK 07 AUDIO
TITLE “New Love In Town”
PERFORMER “Europe”
INDEX 01 00:00:00
FILE “08. In The Future To Come.wav” WAVE
TRACK 08 AUDIO
TITLE “In The Future To Come”
PERFORMER “Europe”
INDEX 01 00:00:00
FILE “09. Paradize Bay.wav” WAVE
TRACK 09 AUDIO
TITLE “Paradize Bay”
PERFORMER “Europe”
INDEX 01 00:00:00
FILE “10. Girl From Lebanon.wav” WAVE
TRACK 10 AUDIO
TITLE “Girl From Lebanon”
PERFORMER “Europe”
INDEX 01 00:00:00
FILE “11. Prisoners In Paradise.wav” WAVE
TRACK 11 AUDIO
TITLE “Prisoners In Paradise”
PERFORMER “Europe”
INDEX 01 00:00:00
FILE “12. Always The Pretenders.wav” WAVE
TRACK 12 AUDIO
TITLE “Always The Pretenders”
PERFORMER “Europe”
INDEX 01 00:00:00
FILE “13. Drink And A Smile.wav” WAVE
TRACK 13 AUDIO
TITLE “Drink And A Smile”
PERFORMER “Europe”
INDEX 01 00:00:00
FILE “14. Open Your Heart.wav” WAVE
TRACK 14 AUDIO
TITLE “Open Your Heart”
PERFORMER “Europe”
INDEX 01 00:00:00
FILE “15. Love Is Not The Enemy.wav” WAVE
TRACK 15 AUDIO
TITLE “Love Is Not The Enemy”
PERFORMER “Europe”
INDEX 01 00:00:00
FILE “16. Sign Of The Times.wav” WAVE
TRACK 16 AUDIO
TITLE “Sign Of The Times”
PERFORMER “Europe”
INDEX 01 00:00:00

REM GENRE “Hard Rock”
REM DATE 2013
REM DISCID BB0E480C
REM COMMENT “ExactAudioCopy v0.99pb5”
PERFORMER “Europe”
TITLE “Live At Sweden Rock – Disc 2”
FILE “01. Start From The Dark.wav” WAVE
TRACK 01 AUDIO
TITLE “Start From The Dark”
PERFORMER “Europe”
INDEX 01 00:00:00
FILE “02. Wings Of Tomorrow.wav” WAVE
TRACK 02 AUDIO
TITLE “Wings Of Tomorrow”
PERFORMER “Europe”
INDEX 01 00:00:00
FILE “03. Carrie.wav” WAVE
TRACK 03 AUDIO
TITLE “Carrie”
PERFORMER “Europe”
INDEX 01 00:00:00
FILE “04. Jailbreak.wav” WAVE
TRACK 04 AUDIO
TITLE “Jailbreak”
PERFORMER “Europe”
INDEX 01 00:00:00
FILE “05. Seven Doors Hotel.wav” WAVE
TRACK 05 AUDIO
TITLE “Seven Doors Hotel”
PERFORMER “Europe”
INDEX 01 00:00:00
FILE “06. Drum Solo.wav” WAVE
TRACK 06 AUDIO
TITLE “Drum Solo”
PERFORMER “Europe”
INDEX 01 00:00:00
FILE “07. The Beast.wav” WAVE
TRACK 07 AUDIO
TITLE “The Beast”
PERFORMER “Europe”
INDEX 01 00:00:00
FILE “08. Let The Good Times Rock.wav” WAVE
TRACK 08 AUDIO
TITLE “Let The Good Times Rock”
PERFORMER “Europe”
INDEX 01 00:00:00
FILE “09. Lights Out.wav” WAVE
TRACK 09 AUDIO
TITLE “Lights Out”
PERFORMER “Europe”
INDEX 01 00:00:00
FILE “10. Rock The Night.wav” WAVE
TRACK 10 AUDIO
TITLE “Rock The Night”
PERFORMER “Europe”
INDEX 01 00:00:00
FILE “11. Last Look At Eden.wav” WAVE
TRACK 11 AUDIO
TITLE “Last Look At Eden”
PERFORMER “Europe”
INDEX 01 00:00:00
FILE “12. The Final Countdown.wav” WAVE
TRACK 12 AUDIO
TITLE “The Final Countdown”
PERFORMER “Europe”
INDEX 01 00:00:00


Leave a Reply

Your email address will not be published. Required fields are marked *

Enter the text from the image below
 

This site uses Akismet to reduce spam. Learn how your comment data is processed.