Europe – Last Look At Eden (Limited Edition)




Artist: Europe
Year: 2009
Genre: Rock
Notes: Discogs
Add. Notes: Limited Edition
Encoder: FLAC
Bitrate: ~1000 kBit/s (44.1 kHz/16 Bit/s)
Bin/Cue incl.: Yes
Size: 452,72 MB
Password: “slam” (without ” “)


http://www.share-online.biz/dl/X9IHMWRPXU

https://rapidgator.net/file/2a5da59ac4cb838c8bef761f5e5626ae

https://uploadbyte.com/f7j3naujun19

https://uploadever.com/y7utfaychz81

https://justupload.io/ph8lg0q0auxw

Tracklist:

1 - Prelude - 0:52
2 - Last Look At Eden - 3:56
3 - Gonna Get Ready - 3:35
4 - Catch The Plane - 4:47
5 - New Love In Town - 3:33
6 - The Beast - 3:23
7 - Mojito Girl - 3:44
8 - No Stone Unturned - 4:48
9 - Only Young Twice - 3:51
10 - U Devil U - 4:10
11 - Run With The Angels - 4:03
12 - In My Time - 6:15
Bonus Live Tracks
13 - Yesterday’s News / Paris 2005 - 7:47
14 - Wake Up Call / Tokyo 2005 - 4:19

EAC-Log, CUE-Sheed & NFO:

Click to open spoiler
Exact Audio Copy V0.99 prebeta 5 from 4. May 2009

EAC extraction logfile from 4. November 2009, 1:36

Europe / Last Look At Eden

Used drive : ASUS DRW-1608P Adapter: 2 ID: 0

Read mode : Secure
Utilize accurate stream : Yes
Defeat audio cache : Yes
Make use of C2 pointers : No

Read offset correction : 48
Overread into Lead-In and Lead-Out : No
Fill up missing offset samples with silence : Yes
Delete leading and trailing silent blocks : No
Null samples used in CRC calculations : Yes
Used interface : Installed external ASPI interface

Used output format : User Defined Encoder
Selected bitrate : 1024 kBit/s
Quality : High
Add ID3 tag : No
Command line compressor : C:\Program Files (x86)\Exact Audio Copy\Flac\flac.exe
Additional command line options : -5 -V -T “ARTIST=%a” -T “TITLE=%t” -T “ALBUM=%g” -T “DATE=%y” -T “TRACKNUMBER=%n” -T “GENRE=%m” -T “COMMENT=EAC FLAC -5” %s

TOC of the extracted CD

Track | Start | Length | Start sector | End sector
———————————————————
1 | 0:00.00 | 0:52.19 | 0 | 3918
2 | 0:52.19 | 3:55.45 | 3919 | 21588
3 | 4:47.64 | 3:35.21 | 21589 | 37734
4 | 8:23.10 | 4:46.64 | 37735 | 59248
5 | 13:09.74 | 3:33.21 | 59249 | 75244
6 | 16:43.20 | 3:23.36 | 75245 | 90505
7 | 20:06.56 | 3:44.23 | 90506 | 107328
8 | 23:51.04 | 4:48.25 | 107329 | 128953
9 | 28:39.29 | 3:51.20 | 128954 | 146298
10 | 32:30.49 | 4:10.20 | 146299 | 165068
11 | 36:40.69 | 4:03.23 | 165069 | 183316
12 | 40:44.17 | 6:15.18 | 183317 | 211459
13 | 46:59.35 | 7:46.68 | 211460 | 246477
14 | 54:46.28 | 4:18.47 | 246478 | 265874

Range status and errors

Selected range

Filename F:\Europe – Last Look At Eden – 2009\Europe – Last Look At Eden.wav

Peak level 100.0 %
Range quality 100.0 %
Test CRC E4E37459
Copy CRC E4E37459
Copy OK

No errors occurred

AccurateRip summary

Track 1 not present in database
Track 2 not present in database
Track 3 not present in database
Track 4 not present in database
Track 5 not present in database
Track 6 not present in database
Track 7 not present in database
Track 8 not present in database
Track 9 not present in database
Track 10 not present in database
Track 11 not present in database
Track 12 not present in database
Track 13 not present in database
Track 14 not present in database

None of the tracks are present in the AccurateRip database

End of status report

REM GENRE “Hard Rock”
REM DATE 2009
REM DISCID A90DD90E
REM COMMENT “ExactAudioCopy v0.99pb5”
CATALOG 4029758981726
PERFORMER “Europe”
TITLE “Last Look At Eden”
FILE “Europe – Last Look At Eden.flac” WAVE
TRACK 01 AUDIO
TITLE “Prelude”
PERFORMER “Europe”
ISRC SEWEK0900401
INDEX 01 00:00:00
TRACK 02 AUDIO
TITLE “Last Look At Eden”
PERFORMER “Europe”
ISRC SEWEK0900402
INDEX 01 00:52:19
TRACK 03 AUDIO
TITLE “Gonna Get Ready”
PERFORMER “Europe”
ISRC SEWEK0900403
INDEX 01 04:47:64
TRACK 04 AUDIO
TITLE “Catch That Plane”
PERFORMER “Europe”
ISRC SEWEK0900404
INDEX 01 08:23:10
TRACK 05 AUDIO
TITLE “New love In Town”
PERFORMER “Europe”
ISRC SEWEK0900405
INDEX 01 13:09:74
TRACK 06 AUDIO
TITLE “The Beast”
PERFORMER “Europe”
ISRC SEWEK0900406
INDEX 01 16:43:20
TRACK 07 AUDIO
TITLE “Mojito Girl”
PERFORMER “Europe”
ISRC SEWEK0900407
INDEX 01 20:06:56
TRACK 08 AUDIO
TITLE “No Stone Unturned”
PERFORMER “Europe”
ISRC SEWEK0900408
INDEX 01 23:51:04
TRACK 09 AUDIO
TITLE “Only Young Twice”
PERFORMER “Europe”
ISRC SEWEK0900409
INDEX 01 28:39:29
TRACK 10 AUDIO
TITLE “U Devil U”
PERFORMER “Europe”
ISRC SEWEK0900102
INDEX 01 32:30:49
TRACK 11 AUDIO
TITLE “Run With The Angels”
PERFORMER “Europe”
ISRC SEWEK0900411
INDEX 01 36:40:69
TRACK 12 AUDIO
TITLE “In My Time”
PERFORMER “Europe”
ISRC SEWEK0900412
INDEX 01 40:44:17
TRACK 13 AUDIO
TITLE “Yesterday’s News (Bonus Track, Paris 2005)”
PERFORMER “Europe”
ISRC SEWEK0900513
INDEX 01 46:59:35
TRACK 14 AUDIO
TITLE “Wake Up Call (Bonus Track, Tokyo 2005)”
PERFORMER “Europe”
ISRC SEWEK0900514
INDEX 01 54:46:28

Leave a Reply

Your email address will not be published. Required fields are marked *

This site uses Akismet to reduce spam. Learn how your comment data is processed.