Europe – Extended Versions




Artist: Europe
Year: 2007
Genre: Rock
Notes: Discogs
Add. Notes:
Cover incl.: Yes
Encoder: FLAC
Bitrate: ~1000 kBit/s (44.1 kHz/16 Bit/s)
Log & Cue incl.: Yes
Size: 360,12 MB
Password: “slam” (without ” “)


All Downloads/Hosters are compatible

Download 1
Turbobit.net
Rapidgator.net
UploadByte.com
UploadEver.com
JustUpload.io
Download 2
Turbobit.net
Rapidgator.net
UploadByte.com
UploadEver.com
JustUpload.io
Download 3
Turbobit.net
Rapidgator.net
UploadByte.com
UploadEver.com
JustUpload.io

Tracklist:

1 - The Final Countdown - 5:12
2 - Danger On The Track - 4:00
3 - Carrie - 4:40
4 - Time Has Come - 4:17
5 - Rock The Night - 5:27
6 - I'll Cry For You - 3:58
7 - On The Loose - 3:08
8 - Cherokee - 5:11
9 - On Broken Wings - 7:20
10 - Let The Good Times Rock - 5:15

EAC-Log, CUE-Sheed & NFO:

Click to open spoiler
Exact Audio Copy V1.0 beta 2 from 29. April 2011

EAC extraction logfile from 22. November 2011, 18:03

Europe / Extended Versions [A 706223]

Used drive : Optiarc DVD RW AD-5260S Adapter: 1 ID: 1

Read mode : Secure
Utilize accurate stream : Yes
Defeat audio cache : Yes
Make use of C2 pointers : No

Read offset correction : 48
Overread into Lead-In and Lead-Out : No
Fill up missing offset samples with silence : Yes
Delete leading and trailing silent blocks : No
Null samples used in CRC calculations : Yes
Used interface : Installed external ASPI interface

Used output format : Internal WAV Routines
Sample format : 44.100 Hz; 16 Bit; Stereo

TOC of the extracted CD

Track | Start | Length | Start sector | End sector
———————————————————
1 | 0:00.00 | 5:12.07 | 0 | 23406
2 | 5:12.07 | 3:59.30 | 23407 | 41361
3 | 9:11.37 | 4:34.57 | 41362 | 61968
4 | 13:46.19 | 4:15.33 | 61969 | 81126
5 | 18:01.52 | 5:27.11 | 81127 | 105662
6 | 23:28.63 | 3:58.18 | 105663 | 123530
7 | 27:27.06 | 3:08.60 | 123531 | 137690
8 | 30:35.66 | 5:11.25 | 137691 | 161040
9 | 35:47.16 | 7:20.59 | 161041 | 194099
10 | 43:08.00 | 5:13.66 | 194100 | 217640

Range status and errors

Selected range

Filename D:\EAC\Europe – Extended Versions [A 706223].wav

Peak level 98.1 %
Extraction speed 4.0 X
Range quality 100.0 %
Test CRC 6C3EA423
Copy CRC 6C3EA423
Copy OK

No errors occurred

AccurateRip summary

Track 1 accurately ripped (confidence 3) [F2892AAE] (AR v1)
Track 2 accurately ripped (confidence 3) [FB8900B0] (AR v1)
Track 3 accurately ripped (confidence 3) [A0523C59] (AR v1)
Track 4 accurately ripped (confidence 3) [791CB471] (AR v1)
Track 5 accurately ripped (confidence 3) [5F6FF1AE] (AR v1)
Track 6 accurately ripped (confidence 3) [DA7DBC2B] (AR v1)
Track 7 accurately ripped (confidence 3) [017A373E] (AR v1)
Track 8 accurately ripped (confidence 3) [3CD6B7F2] (AR v1)
Track 9 accurately ripped (confidence 3) [6ECC020D] (AR v1)
Track 10 accurately ripped (confidence 3) [C97C2F60] (AR v1)

All tracks accurately ripped

End of status report

==== Log checksum E633175431073C64F653547302407480ECD20EDAD38874A6B1BDCBF66ADD75C0 ====

REM GENRE Rock
REM DATE 2007
REM DISCID 820B550A
REM COMMENT “ExactAudioCopy v1.0b2”
PERFORMER “Europe”
TITLE “Extended Versions [A 706223]”
FILE “Europe – Extended Versions [A 706223].flac” WAVE
TRACK 01 AUDIO
TITLE “The Final Countdown”
PERFORMER “Europe”
ISRC USSM10105447
INDEX 01 00:00:00
TRACK 02 AUDIO
TITLE “Danger On The Track”
PERFORMER “Europe”
ISRC USSM10105448
INDEX 01 05:12:07
TRACK 03 AUDIO
TITLE “Carrie”
PERFORMER “Europe”
ISRC USSM10105449
INDEX 01 09:11:37
TRACK 04 AUDIO
TITLE “Time Has Come”
PERFORMER “Europe”
ISRC USSM10402361
INDEX 01 13:46:19
TRACK 05 AUDIO
TITLE “Rock The Night”
PERFORMER “Europe”
ISRC USSM18700697
INDEX 01 18:01:52
TRACK 06 AUDIO
TITLE “I’ll Cry For You”
PERFORMER “Europe”
ISRC USSM19101028
INDEX 01 23:28:63
TRACK 07 AUDIO
TITLE “On The Loose”
PERFORMER “Europe”
ISRC USSM18700698
INDEX 01 27:27:06
TRACK 08 AUDIO
TITLE “Cherokee”
PERFORMER “Europe”
ISRC USSM18700696
INDEX 01 30:35:66
TRACK 09 AUDIO
TITLE “On Broken Wings”
PERFORMER “Europe”
ISRC USSM18700699
INDEX 01 35:47:16
TRACK 10 AUDIO
TITLE “Let The Good Times Rock”
PERFORMER “Europe”
ISRC USSM10402364
INDEX 01 43:08:00

Leave a Reply

Your email address will not be published. Required fields are marked *

Enter the text from the image below
 

This site uses Akismet to reduce spam. Learn how your comment data is processed.