Europe – Europe (1st Press) (Japanese Edition)




Artist: Europe
Year: 1983/1986
Genre: Rock
Notes: Discogs
Add. Notes: Japanese Edition
Cover incl.: Yes
Encoder: FLAC
Bitrate: ~900 kBit/s (44.1 kHz/16 Bit/s)
Log & Cue incl.: Yes
Size: 259,36 MB
Password: “slam” (without ” “)


All Downloads/Hosters are compatible

Download 1
Turbobit.net
Rapidgator.net
UploadEver.com
JustUpload.io
UsersDrive.com
Download 2
Turbobit.net
Rapidgator.net
UploadEver.com
JustUpload.io
UsersDrive.com
Download 3
Turbobit.net
Rapidgator.net
UploadEver.com
JustUpload.io
UsersDrive.com

Tracklist:

1 - In The Future To Come - 5:01
2 - Farewell - 4:16
3 - Seven Doors Hotel - 5:17
4 - The King Will Return - 5:34
5 - Boyazont - 2:32
6 - Children Of This Time - 4:55
7 - Words Of Wisdom - 4:05
8 - Paradize Bay - 3:53
9 - Memories - 4:33

EAC-Log, CUE-Sheed & NFO:

Click to open spoiler
Exact Audio Copy V0.99 prebeta 5 from 4. May 2009

Отчёт EAC об извлечении, выполненном 2. ноября 2010, 10:23

Europe / Europe [VDP-1147]

Дисковод: Optiarc DVD RW AD-7200A Adapter: 1 ID: 0

Режим чтения : Достоверность
Использование точного потока : Да
Отключение кэша аудио : Да
Использование указателей C2 : Нет

Коррекция смещения при чтении : 48
Способность читать области Lead-in и Lead-out : Нет
Заполнение пропущенных сэмплов тишиной : Да
Удаление блоков с тишиной в начале и конце : Нет
При вычислениях CRC использовались нулевые сэмплы : Да
Интерфейс : Встроенный Win32-интерфейс для Win NT/2000

Выходной формат : Пользовательский кодировщик
Выбранный битрейт : 128 kBit/s
Качество : Высокий
Добавление ID3-тэга : Нет
Утилита сжатия : C:\Program Files\Exact Audio Copy\Flac\flac.exe
Дополнительные параметры : -8 -V -T “artist=%a” -T “title=%t” -T “album=%g” -T “date=%y” -T “tracknumber=%n” -T “genre=%m” -T “comment=EAC

TOC извлечённого CD

Трек | Старт | Длительность | Начальный сектор | Конечный сектор
———————————————————————
1 | 0:00.37 | 5:01.23 | 37 | 22634
2 | 5:01.60 | 4:16.10 | 22635 | 41844
3 | 9:17.70 | 5:17.02 | 41845 | 65621
4 | 14:34.72 | 5:34.73 | 65622 | 90744
5 | 20:09.70 | 2:33.12 | 90745 | 102231
6 | 22:43.07 | 4:55.43 | 102232 | 124399
7 | 27:38.50 | 4:06.42 | 124400 | 142891
8 | 31:45.17 | 3:53.45 | 142892 | 160411
9 | 35:38.62 | 4:34.05 | 160412 | 180966

Характеристики диапазона извлечения и сообщения об ошибках

Выбранный диапазон

Имя файла Y:\Музыка\Europe\1983 Europe\Europe – Europe [VDP-1147].wav

Пиковый уровень 96.4 %
Качество диапазона 100.0 %
CRC теста CB2DA8BE
CRC копии CB2DA8BE
Копирование… OK

Ошибок не произошло

AccurateRip: сводка

Трек 1 нет в базе данных
Трек 2 нет в базе данных
Трек 3 нет в базе данных
Трек 4 нет в базе данных
Трек 5 нет в базе данных
Трек 6 нет в базе данных
Трек 7 нет в базе данных
Трек 8 нет в базе данных
Трек 9 нет в базе данных

Ни одного трека нет в базе AccurateRip

Конец отчёта

REM GENRE “Hard ‘n’ Heavy”
REM DATE 1983
REM DISCID 69096C09
REM COMMENT “ExactAudioCopy v0.99pb5”
PERFORMER “Europe”
TITLE “Europe [VDP-1147]”
FILE “Europe – Europe [VDP-1147].flac” WAVE
TRACK 01 AUDIO
TITLE “In The Future To Come”
PERFORMER “Europe”
INDEX 00 00:00:00
INDEX 01 00:00:37
TRACK 02 AUDIO
TITLE “Farewell”
PERFORMER “Europe”
INDEX 01 05:01:60
TRACK 03 AUDIO
TITLE “Seven Doors Hotel”
PERFORMER “Europe”
INDEX 01 09:17:70
TRACK 04 AUDIO
TITLE “The King Will Return”
PERFORMER “Europe”
INDEX 00 14:33:45
INDEX 01 14:34:72
TRACK 05 AUDIO
TITLE “Boyazont (instrumental)”
PERFORMER “Europe”
INDEX 01 20:09:70
TRACK 06 AUDIO
TITLE “Children Of This Time”
PERFORMER “Europe”
INDEX 00 22:42:45
INDEX 01 22:43:07
TRACK 07 AUDIO
TITLE “Words Of Wisdom”
PERFORMER “Europe”
INDEX 01 27:38:50
TRACK 08 AUDIO
TITLE “Paradize Bay”
PERFORMER “Europe”
INDEX 00 31:43:03
INDEX 01 31:45:17
TRACK 09 AUDIO
TITLE “Memories”
PERFORMER “Europe”
INDEX 01 35:38:62

Leave a Reply

Your email address will not be published. Required fields are marked *

Enter the text from the image below
 

This site uses Akismet to reduce spam. Learn how your comment data is processed.