Europe – Bag of Bones (Japanese Edition)




Artist: Europe
Year: 2012
Genre: Rock
Notes: Discogs
Add. Notes: Japanese Edition
Cover incl.: Yes
Encoder: FLAC
Bitrate: ~1000 kBit/s (44.1 kHz/16 Bit/s)
Log & Cue incl.: Yes
Size: 391,89 MB
Password: “slam” (without ” “)


All Downloads/Hosters are compatible

Download 1
Turbobit.net
Rapidgator.net
UploadEver.com
KatFile.com
UsersDrive.com
Download 2
Turbobit.net
Rapidgator.net
UploadEver.com
KatFile.com
UsersDrive.com
Download 3
Turbobit.net
Rapidgator.net
UploadEver.com
KatFile.com
UsersDrive.com

Tracklist:

1. Riches To Rags 
2. Not Supposed To Sing The Blues 
3. Firebox 
4. Bag Of Bones 
5. Requiem 
6. My Woman My Friend 
7. Demon Head 
8. Drink And A Smile 
9. Doghouse 
10. Mercy You Mercy Me 
11. Bring It All Home 
12. Beautiful Disaster

EAC-Log, CUE-Sheed & NFO:

Click to open spoiler
Exact Audio Copy V1.0 beta 3 from 29. August 2011

EAC extraction logfile from 8. May 2012, 16:32

Europe / Bag of Bones

Used drive : MATSHITABD-MLT UJ240AFW Adapter: 0 ID: 2

Read mode : Secure
Utilize accurate stream : Yes
Defeat audio cache : Yes
Make use of C2 pointers : No

Read offset correction : 103
Overread into Lead-In and Lead-Out : No
Fill up missing offset samples with silence : Yes
Delete leading and trailing silent blocks : No
Null samples used in CRC calculations : Yes
Used interface : Native Win32 interface for Win NT & 2000
Gap handling : Appended to previous track

Used output format : User Defined Encoder
Selected bitrate : 768 kBit/s
Quality : High
Add ID3 tag : No
Command line compressor : C:\Program Files (x86)\Exact Audio Copy\Flac\flac.exe
Additional command line options : -V -8 -T “Genre=%genre%” -T “Artist=%artist%” -T “Title=%title%” -T “Album=%albumtitle%” -T “Date=%year%” -T “Tracknumber=%tracknr%” -T “Comment=%comment%” %source%

TOC of the extracted CD

Track | Start | Length | Start sector | End sector
———————————————————
1 | 0:00.00 | 3:05.61 | 0 | 13935
2 | 3:05.61 | 5:13.17 | 13936 | 37427
3 | 8:19.03 | 3:46.59 | 37428 | 54436
4 | 12:05.62 | 5:31.02 | 54437 | 79263
5 | 17:36.64 | 0:28.45 | 79264 | 81408
6 | 18:05.34 | 4:25.01 | 81409 | 101284
7 | 22:30.35 | 3:58.67 | 101285 | 119201
8 | 26:29.27 | 2:21.61 | 119202 | 129837
9 | 28:51.13 | 3:58.29 | 129838 | 147716
10 | 32:49.42 | 4:31.36 | 147717 | 168077
11 | 37:21.03 | 3:40.07 | 168078 | 184584
12 | 41:01.10 | 3:57.64 | 184585 | 202423

Track 1

Filename F:\FLACS\Europe Bag of Bones (2012) (Japan Bonus Track) [FLAC]\01 – Riches To Rags.wav

Pre-gap length 0:00:02.00

Peak level 100.0 %
Extraction speed 2.3 X
Track quality 100.0 %
Test CRC 6BB55C06
Copy CRC 6BB55C06
Track not present in AccurateRip database
Copy OK

Track 2

Filename F:\FLACS\Europe Bag of Bones (2012) (Japan Bonus Track) [FLAC]\02 – Not Supposed To Sing The Blues.wav

Pre-gap length 0:00:00.22

Peak level 100.0 %
Extraction speed 2.8 X
Track quality 100.0 %
Test CRC A428F20C
Copy CRC A428F20C
Track not present in AccurateRip database
Copy OK

Track 3

Filename F:\FLACS\Europe Bag of Bones (2012) (Japan Bonus Track) [FLAC]\03 – Firebox.wav

Pre-gap length 0:00:00.03

Peak level 100.0 %
Extraction speed 2.9 X
Track quality 100.0 %
Test CRC 63F9EFA2
Copy CRC 63F9EFA2
Track not present in AccurateRip database
Copy OK

Track 4

Filename F:\FLACS\Europe Bag of Bones (2012) (Japan Bonus Track) [FLAC]\04 – Bag Of Bones.wav

Pre-gap length 0:00:01.62

Peak level 100.0 %
Extraction speed 3.1 X
Track quality 99.9 %
Test CRC 60548BF6
Copy CRC 60548BF6
Track not present in AccurateRip database
Copy OK

Track 5

Filename F:\FLACS\Europe Bag of Bones (2012) (Japan Bonus Track) [FLAC]\05 – Requiem.wav

Pre-gap length 0:00:00.45

Peak level 99.6 %
Extraction speed 1.7 X
Track quality 100.0 %
Test CRC FB03B7E7
Copy CRC FB03B7E7
Track not present in AccurateRip database
Copy OK

Track 6

Filename F:\FLACS\Europe Bag of Bones (2012) (Japan Bonus Track) [FLAC]\06 – My Woman My Friend.wav

Peak level 100.0 %
Extraction speed 3.6 X
Track quality 100.0 %
Test CRC 8D939064
Copy CRC 8D939064
Track not present in AccurateRip database
Copy OK

Track 7

Filename F:\FLACS\Europe Bag of Bones (2012) (Japan Bonus Track) [FLAC]\07 – Demon Head.wav

Pre-gap length 0:00:00.29

Peak level 100.0 %
Extraction speed 3.7 X
Track quality 100.0 %
Test CRC 9E73CB5C
Copy CRC 9E73CB5C
Track not present in AccurateRip database
Copy OK

Track 8

Filename F:\FLACS\Europe Bag of Bones (2012) (Japan Bonus Track) [FLAC]\08 – Drink And A Smile.wav

Pre-gap length 0:00:00.39

Peak level 100.0 %
Extraction speed 3.5 X
Track quality 100.0 %
Test CRC 977EF743
Copy CRC 977EF743
Track not present in AccurateRip database
Copy OK

Track 9

Filename F:\FLACS\Europe Bag of Bones (2012) (Japan Bonus Track) [FLAC]\09 – Doghouse.wav

Pre-gap length 0:00:00.16

Peak level 100.0 %
Extraction speed 3.5 X
Track quality 99.9 %
Test CRC 2CC8037A
Copy CRC 2CC8037A
Track not present in AccurateRip database
Copy OK

Track 10

Filename F:\FLACS\Europe Bag of Bones (2012) (Japan Bonus Track) [FLAC]\10 – Mercy You Mercy Me.wav

Pre-gap length 0:00:00.65

Peak level 100.0 %
Extraction speed 4.2 X
Track quality 100.0 %
Test CRC 20B9C096
Copy CRC 20B9C096
Track not present in AccurateRip database
Copy OK

Track 11

Filename F:\FLACS\Europe Bag of Bones (2012) (Japan Bonus Track) [FLAC]\11 – Bring It All Home.wav

Pre-gap length 0:00:01.73

Peak level 100.0 %
Extraction speed 3.7 X
Track quality 99.9 %
Test CRC 731E0D9C
Copy CRC 731E0D9C
Track not present in AccurateRip database
Copy OK

Track 12

Filename F:\FLACS\Europe Bag of Bones (2012) (Japan Bonus Track) [FLAC]\12 – Beautiful Disaster.wav

Pre-gap length 0:00:00.49

Peak level 100.0 %
Extraction speed 4.4 X
Track quality 100.0 %
Test CRC CAAC0EE6
Copy CRC CAAC0EE6
Track not present in AccurateRip database
Copy OK

None of the tracks are present in the AccurateRip database

No errors occurred

End of status report

==== Log checksum D65078A3943BA040830FA5BE1A51A57C98F84DD37495E2A3230E2727CBE67081 ====

REM GENRE “Hard Rock”
REM DATE 2012
REM DISCID 9B0A8A0C
REM COMMENT “ExactAudioCopy v1.0b3”
CATALOG 4988002616725
PERFORMER “Europe”
TITLE “Bag of Bones”
FILE “01 – Riches To Rags.wav” WAVE
TRACK 01 AUDIO
TITLE “Riches To Rags”
PERFORMER “Europe”
ISRC SEWEK1100201
INDEX 01 00:00:00
TRACK 02 AUDIO
TITLE “Not Supposed To Sing The Blues”
PERFORMER “Europe”
ISRC SEWEK1100202
INDEX 00 03:05:39
FILE “02 – Not Supposed To Sing The Blues.wav” WAVE
INDEX 01 00:00:00
TRACK 03 AUDIO
TITLE “Firebox”
PERFORMER “Europe”
ISRC SEWEK1100203
INDEX 00 05:13:14
FILE “03 – Firebox.wav” WAVE
INDEX 01 00:00:00
TRACK 04 AUDIO
TITLE “Bag Of Bones”
PERFORMER “Europe”
ISRC SEWEK1100204
INDEX 00 03:44:72
FILE “04 – Bag Of Bones.wav” WAVE
INDEX 01 00:00:00
TRACK 05 AUDIO
TITLE “Requiem”
PERFORMER “Europe”
ISRC SEWEK1100205
INDEX 00 05:30:32
FILE “05 – Requiem.wav” WAVE
INDEX 01 00:00:00
FILE “06 – My Woman My Friend.wav” WAVE
TRACK 06 AUDIO
TITLE “My Woman My Friend”
PERFORMER “Europe”
ISRC SEWEK1100206
INDEX 01 00:00:00
TRACK 07 AUDIO
TITLE “Demon Head”
PERFORMER “Europe”
ISRC SEWEK1100207
INDEX 00 04:24:47
FILE “07 – Demon Head.wav” WAVE
INDEX 01 00:00:00
TRACK 08 AUDIO
TITLE “Drink And A Smile”
PERFORMER “Europe”
ISRC SEWEK1100208
INDEX 00 03:58:28
FILE “08 – Drink And A Smile.wav” WAVE
INDEX 01 00:00:00
TRACK 09 AUDIO
TITLE “Doghouse”
PERFORMER “Europe”
ISRC SEWEK1100209
INDEX 00 02:21:45
FILE “09 – Doghouse.wav” WAVE
INDEX 01 00:00:00
TRACK 10 AUDIO
TITLE “Mercy You Mercy Me”
PERFORMER “Europe”
ISRC SEWEK1100210
INDEX 00 03:57:39
FILE “10 – Mercy You Mercy Me.wav” WAVE
INDEX 01 00:00:00
TRACK 11 AUDIO
TITLE “Bring It All Home”
PERFORMER “Europe”
ISRC SEWEK1100211
INDEX 00 04:29:38
FILE “11 – Bring It All Home.wav” WAVE
INDEX 01 00:00:00
TRACK 12 AUDIO
TITLE “Beautiful Disaster”
PERFORMER “Europe”
ISRC SEWEK1100212
INDEX 00 03:39:33
FILE “12 – Beautiful Disaster.wav” WAVE
INDEX 01 00:00:00

Leave a Reply

Your email address will not be published. Required fields are marked *

Enter the text from the image below
 

This site uses Akismet to reduce spam. Learn how your comment data is processed.