Europe – Almost Unplugged




Artist: Europe
Year: 2009
Genre: Rock
Notes: Discogs
Add. Notes:
Encoder: FLAC
Bitrate: ~1000 kBit/s (44.1 kHz/16 Bit/s)
Bin/Cue incl.: Yes
Size: 547,05 MB
Password: “slam” (without ” “)


http://www.share-online.biz/dl/F9SEMWRP60
http://www.share-online.biz/dl/BXSFMWRPELI

https://rapidgator.net/file/aa2e7004b10227d4b971b9238b755569
https://rapidgator.net/file/b302a90f938d7ee05e79deecf5650072

https://uploadbyte.com/qy9clylvo9kg
https://uploadbyte.com/vrbtrzzk442w

https://uploadever.com/5b6ov37g4vxi
https://uploadever.com/mjgro9p1ocen

https://justupload.io/4ykidv407cb1
https://justupload.io/lodpt4ec3pvo

Tracklist:

1 - Got To Have Faith  
2 - Forever Travelling 
3 - Devil Sings The Blues 
4 - Wish You Were Here 
5 - Dreamer 
6 - Love To Love 
7 - The Final Countdown 
8 - Yesterdays News 
9 - Since I've Been Lovin You 
10 - Hero 
11 - Suicide 
12 - Memories 
13 - Superstitious 
14 - Rock The Night

EAC-Log, CUE-Sheed & NFO:

Click to open spoiler
Exact Audio Copy V1.0 beta 2 from 29. April 2011

EAC extraction logfile from 7. December 2011, 17:24

Europe / Almost Unplugged [HBDVD002]

Used drive : Optiarc DVD RW AD-5260S Adapter: 1 ID: 1

Read mode : Secure
Utilize accurate stream : Yes
Defeat audio cache : Yes
Make use of C2 pointers : No

Read offset correction : 48
Overread into Lead-In and Lead-Out : No
Fill up missing offset samples with silence : Yes
Delete leading and trailing silent blocks : No
Null samples used in CRC calculations : Yes
Used interface : Installed external ASPI interface

Used output format : Internal WAV Routines
Sample format : 44.100 Hz; 16 Bit; Stereo

TOC of the extracted CD

Track | Start | Length | Start sector | End sector
———————————————————
1 | 0:00.00 | 4:15.27 | 0 | 19151
2 | 4:15.27 | 4:22.08 | 19152 | 38809
3 | 8:37.35 | 6:26.01 | 38810 | 67760
4 | 15:03.36 | 4:36.50 | 67761 | 88510
5 | 19:40.11 | 4:23.22 | 88511 | 108257
6 | 24:03.33 | 7:31.52 | 108258 | 142134
7 | 31:35.10 | 5:46.62 | 142135 | 168146
8 | 37:21.72 | 6:30.31 | 168147 | 197427
9 | 43:52.28 | 7:24.05 | 197428 | 230732
10 | 51:16.33 | 4:26.59 | 230733 | 250741
11 | 55:43.17 | 5:42.46 | 250742 | 276437
12 | 61:25.63 | 5:51.14 | 276438 | 302776
13 | 67:17.02 | 4:39.09 | 302777 | 323710
14 | 71:56.11 | 5:51.29 | 323711 | 350064

Range status and errors

Selected range

Filename D:\EAC\Europe – Almost Unplugged [HBDVD002].wav

Peak level 100.0 %
Extraction speed 4.5 X
Range quality 100.0 %
Test CRC 1913027A
Copy CRC 1913027A
Copy OK

No errors occurred

AccurateRip summary

Track 1 accurately ripped (confidence 3) [9B7F2C18] (AR v1)
Track 2 accurately ripped (confidence 3) [5C7DCE65] (AR v1)
Track 3 accurately ripped (confidence 3) [8CE393D7] (AR v1)
Track 4 accurately ripped (confidence 3) [783FE53B] (AR v1)
Track 5 accurately ripped (confidence 3) [7BB37026] (AR v1)
Track 6 accurately ripped (confidence 3) [F8CAE578] (AR v1)
Track 7 accurately ripped (confidence 3) [F01F7EF2] (AR v1)
Track 8 accurately ripped (confidence 3) [8589088B] (AR v1)
Track 9 accurately ripped (confidence 3) [E399D79A] (AR v1)
Track 10 accurately ripped (confidence 3) [333694E8] (AR v1)
Track 11 accurately ripped (confidence 3) [EA981E58] (AR v1)
Track 12 accurately ripped (confidence 3) [55F4594D] (AR v1)
Track 13 accurately ripped (confidence 3) [2789111A] (AR v1)
Track 14 accurately ripped (confidence 3) [ACDC78CC] (AR v1)

All tracks accurately ripped

End of status report

==== Log checksum F7545628EB87107B72E141D9ED1A4B2C60222FC7BF48DD59784DC965C1E5BF6C ====

REM GENRE “Hard Rock”
REM DATE 2008
REM DISCID D3123B0E
REM COMMENT “ExactAudioCopy v1.0b2”
PERFORMER “Europe”
TITLE “Almost Unplugged [HBDVD002]”
FILE “Europe – Almost Unplugged [HBDVD002].flac” WAVE
TRACK 01 AUDIO
TITLE “Got To Have Faith”
PERFORMER “Europe”
ISRC SEWEK0800101
INDEX 01 00:00:00
TRACK 02 AUDIO
TITLE “Forever Travelling”
PERFORMER “Europe”
ISRC SEWEK0800102
INDEX 01 04:15:27
TRACK 03 AUDIO
TITLE “Devil Sings The Blues”
PERFORMER “Europe”
ISRC SEWEK0800103
INDEX 01 08:37:35
TRACK 04 AUDIO
TITLE “Wish You Were Here”
PERFORMER “Europe”
ISRC SEWEK0800010
INDEX 01 15:03:36
TRACK 05 AUDIO
TITLE “Dreamer”
PERFORMER “Europe”
ISRC SEWEK0800105
INDEX 01 19:40:11
TRACK 06 AUDIO
TITLE “Love To Love”
PERFORMER “Europe”
ISRC SEWEK0800106
INDEX 01 24:03:33
TRACK 07 AUDIO
TITLE “The Final Countdown”
PERFORMER “Europe”
ISRC SEWEK0800107
INDEX 01 31:35:10
TRACK 08 AUDIO
TITLE “Yesterday’s News”
PERFORMER “Europe”
ISRC SEWEK0800108
INDEX 01 37:21:72
TRACK 09 AUDIO
TITLE “Since I’ve Been Lovin’ You”
PERFORMER “Europe”
ISRC SEWEK0800109
INDEX 01 43:52:28
TRACK 10 AUDIO
TITLE “Hero”
PERFORMER “Europe”
ISRC SEWEK0800110
INDEX 01 51:16:33
TRACK 11 AUDIO
TITLE “Suicide”
PERFORMER “Europe”
ISRC SEWEK0800111
INDEX 01 55:43:17
TRACK 12 AUDIO
TITLE “Memories”
PERFORMER “Europe”
ISRC SEWEK0800112
INDEX 01 61:25:63
TRACK 13 AUDIO
TITLE “Superstitious”
PERFORMER “Europe”
ISRC SEWEK0800113
INDEX 01 67:17:02
TRACK 14 AUDIO
TITLE “Rock The Night”
PERFORMER “Europe”
ISRC SEWEK0800114
INDEX 01 71:56:11

Leave a Reply

Your email address will not be published. Required fields are marked *

This site uses Akismet to reduce spam. Learn how your comment data is processed.