Emils – Es Geht Uns Gut




[Total: 0    Average: 0/5]

Artist: Emils
Year: 1989
Genre: Hardcore
Notes: Discogs
Add. Notes:
Cover incl.: Yes
Encoder: FLAC
Bitrate: ~1100 kBit/s (44.1 kHz/16 Bit/s)
Log & Cue incl.: Yes
Size: 259,76 MB
Password: “slam” (without ” “)


All Downloads/Hosters are compatible

Download 1
Share-online.biz
Rapidgator.net
KatFile.com
UploadRar.com
Download 2
Share-online.biz
Rapidgator.net
KatFile.com
UploadRar.com
Download 3
Share-online.biz
Rapidgator.net
KatFile.com
UploadRar.com

Tracklist:

1 - Experiment - 2:30
2 - Kosaken Kaffee - 2:30
3 - Schizophren - 2:20
4 - Du Und Ich - 3:28
5 - Nein Nein Nein - 1:31
6 - Anonyme Philharmonie - 4:07
7 - Such Ihn - 3:02
8 - Rufmord - 3:48
9 - Hungerlied - 2:08
10 - Es Geht Uns Gut - 3:34
11 - Abrechnung - 3:48

EAC-Log, CUE-Sheed & NFO:

Click to open spoiler
REM DISCID 97080B0B
REM COMMENT “ExactAudioCopy v0.99pb5”
PERFORMER “”
TITLE “”
FILE “Emils – Es Geht Uns Gut.flac” WAVE
TRACK 01 AUDIO
TITLE “Track01”
PERFORMER “”
INDEX 01 00:00:00
TRACK 02 AUDIO
TITLE “Track02”
PERFORMER “”
INDEX 01 02:39:29
TRACK 03 AUDIO
TITLE “Track03”
PERFORMER “”
INDEX 01 05:15:66
TRACK 04 AUDIO
TITLE “Track04”
PERFORMER “”
INDEX 01 07:43:34
TRACK 05 AUDIO
TITLE “Track05”
PERFORMER “”
INDEX 01 11:21:19
TRACK 06 AUDIO
TITLE “Track06”
PERFORMER “”
INDEX 01 12:57:35
TRACK 07 AUDIO
TITLE “Track07”
PERFORMER “”
INDEX 01 17:14:48
TRACK 08 AUDIO
TITLE “Track08”
PERFORMER “”
INDEX 01 20:24:62
TRACK 09 AUDIO
TITLE “Track09”
PERFORMER “”
INDEX 01 24:23:62
TRACK 10 AUDIO
TITLE “Track10”
PERFORMER “”
INDEX 01 26:37:25
TRACK 11 AUDIO
TITLE “Track11”
PERFORMER “”
INDEX 01 30:21:06

Spread the Download

Leave a Reply

Your email address will not be published. Required fields are marked *

Enter the text from the image below
 

This site uses Akismet to reduce spam. Learn how your comment data is processed.