Elvis Presley – Today




No Cover available

Artist: Elvis Presley
Year: 1972/2016
Genre: Rock
Notes: Discogs
Add. Notes:
Watch Songs on: YouTube
Cover incl.: Yes
Encoder: FLAC
Bitrate: ~800 kBit/s (44.1 kHz/16 Bit/s)
Log & Cue incl.: Yes/Yes
Size: 206,8 MB
Password: “slam” (without ” “)


All Downloads/Hosters are compatible

Download 1
KatFile.com
Turbobit.net
FileFactory.com
Rapidgator.net
Download 2
KatFile.com
Turbobit.net
FileFactory.com
Rapidgator.net

Tracklist:

1. T-R-O-U-B-L-E
2. And I Love You So
3. Susan When She Tried
4. Woman Without Love
5. Shake A Hand
6. Pieces Of My Life
7. Fairytale
8. I Can Help
9. Bringin' It Back
10. Green, Green Grass Of Home

EAC-Log, CUE-Sheed & NFO:

Click to open spoiler
Exact Audio Copy V1.1 from 23. June 2015

EAC extraction logfile from 27. April 2016, 10:41

Elvis Presley / Today

Used drive : hp CDDVDW SH-216BB Adapter: 1 ID: 0

Read mode : Secure
Utilize accurate stream : Yes
Defeat audio cache : Yes
Make use of C2 pointers : No

Read offset correction : 6
Overread into Lead-In and Lead-Out : No
Fill up missing offset samples with silence : Yes
Delete leading and trailing silent blocks : No
Null samples used in CRC calculations : Yes
Used interface : Native Win32 interface for Win NT & 2000

Used output format : Internal WAV Routines
Sample format : 44.100 Hz; 16 Bit; Stereo

TOC of the extracted CD

Track | Start | Length | Start sector | End sector
———————————————————
1 | 0:00.00 | 3:04.60 | 0 | 13859
2 | 3:04.60 | 3:40.23 | 13860 | 30382
3 | 6:45.08 | 2:18.37 | 30383 | 40769
4 | 9:03.45 | 3:35.27 | 40770 | 56921
5 | 12:38.72 | 3:49.72 | 56922 | 74168
6 | 16:28.69 | 4:04.52 | 74169 | 92520
7 | 20:33.46 | 2:44.56 | 92521 | 104876
8 | 23:18.27 | 4:05.17 | 104877 | 123268
9 | 27:23.44 | 3:02.63 | 123269 | 136981
10 | 30:26.32 | 3:36.65 | 136982 | 153246

Range status and errors

Selected range

Filename C:\Users\Arturs\Desktop\Elvis Presley – Today.wav

Peak level 100.0 %
Extraction speed 2.6 X
Range quality 100.0 %
Test CRC DFD02EF9
Copy CRC DFD02EF9
Copy OK

No errors occurred

AccurateRip summary

Track 1 accurately ripped (confidence 1) [6A501DC7] (AR v2)
Track 2 accurately ripped (confidence 1) [068D5716] (AR v2)
Track 3 accurately ripped (confidence 1) [A186090B] (AR v2)
Track 4 accurately ripped (confidence 1) [A6831E68] (AR v2)
Track 5 accurately ripped (confidence 1) [56E6E85A] (AR v2)
Track 6 accurately ripped (confidence 1) [EB28F699] (AR v2)
Track 7 accurately ripped (confidence 1) [92FD0B82] (AR v2)
Track 8 accurately ripped (confidence 1) [4DE83A32] (AR v2)
Track 9 accurately ripped (confidence 1) [95466797] (AR v2)
Track 10 accurately ripped (confidence 1) [B96A599B] (AR v2)

All tracks accurately ripped

End of status report

—- CUETools DB Plugin V2.1.6

[CTDB TOCID: Tqiz7zeaFvGQHD77f4dqO2m4lnA-] found
Submit result: Tqiz7zeaFvGQHD77f4dqO2m4lnA- has been confirmed
Track | CTDB Status
1 | (9/9) Accurately ripped
2 | (9/9) Accurately ripped
3 | (9/9) Accurately ripped
4 | (9/9) Accurately ripped
5 | (9/9) Accurately ripped
6 | (9/9) Accurately ripped
7 | (9/9) Accurately ripped
8 | (9/9) Accurately ripped
9 | (9/9) Accurately ripped
10 | (9/9) Accurately ripped

==== Log checksum 0D265FFD370B6F3F7996DEF2ACF00DBB35540091ADFCACB08C75E73D5E861538 ====

REM DATE 1975
REM DISCID 7C07FB0A
REM COMMENT “ExactAudioCopy v1.1”
PERFORMER “Elvis Presley”
TITLE “Today”
FILE “Elvis Presley – Today.flac” WAVE
TRACK 01 AUDIO
TITLE “T-R-O-U-B-L-E”
PERFORMER “Elvis Presley”
INDEX 01 00:00:00
TRACK 02 AUDIO
TITLE “And I Love You So”
PERFORMER “Elvis Presley”
INDEX 00 03:02:71
INDEX 01 03:04:60
TRACK 03 AUDIO
TITLE “Susan When She Tried”
PERFORMER “Elvis Presley”
INDEX 00 06:43:53
INDEX 01 06:45:08
TRACK 04 AUDIO
TITLE “Woman Without Love”
PERFORMER “Elvis Presley”
INDEX 00 09:03:07
INDEX 01 09:03:45
TRACK 05 AUDIO
TITLE “Shake A Hand”
PERFORMER “Elvis Presley”
INDEX 00 12:37:54
INDEX 01 12:38:72
TRACK 06 AUDIO
TITLE “Pieces Of My Life”
PERFORMER “Elvis Presley”
INDEX 00 16:28:13
INDEX 01 16:28:69
TRACK 07 AUDIO
TITLE “Fairytale”
PERFORMER “Elvis Presley”
INDEX 00 20:33:14
INDEX 01 20:33:46
TRACK 08 AUDIO
TITLE “I Can Help”
PERFORMER “Elvis Presley”
INDEX 00 23:17:48
INDEX 01 23:18:27
TRACK 09 AUDIO
TITLE “Bringin’ It Back”
PERFORMER “Elvis Presley”
INDEX 00 27:22:54
INDEX 01 27:23:44
TRACK 10 AUDIO
TITLE “Green, Green Grass Of Home”
PERFORMER “Elvis Presley”
INDEX 00 30:24:36
INDEX 01 30:26:32


Leave a Reply

Your email address will not be published. Required fields are marked *

Enter the text from the image below
 

This site uses Akismet to reduce spam. Learn how your comment data is processed.