Elvis Presley – That’s The Way It Is (Reissue)




Artist: Elvis Presley
Year: 1970/2016
Genre: Rock
Notes: Discogs
Add. Notes: Reissue
Cover incl.: Yes
Encoder: FLAC
Bitrate: ~900 kBit/s (44.1 kHz/16 Bit/s)
Log & Cue incl.: Yes
Size: 327,7 MB
Password: “slam” (without ” “)


All Downloads/Hosters are compatible

Download 1
KatFile.com
Turbobit.net
FileFactory.com
Rapidgator.net
Download 2
KatFile.com
Turbobit.net
FileFactory.com
Rapidgator.net

Tracklist:

1 I Just Can't Help Believin' 
2 Twenty Days And Twenty Nights 
3 How The Web Was Woven 
4 Patch It Up 
5 Mary In The Morning 
6 You Don't Have To Say You Love Me 
7 You've Lost That Loving Feeling 
8 I've Lost You 
9 Just Pretend 
10 Stranger In The Crowd 
11 The Next Step Is Love 
12 Bridge Over Troubled Water 
13 I've Lost You 
14 Patch It Up

EAC-Log, CUE-Sheed & NFO:

Click to open spoiler
Exact Audio Copy V1.1 from 23. June 2015

EAC extraction logfile from 16. April 2016, 13:46

Elvis Presley / That’s The Way It Is

Used drive : hp CDDVDW SH-216BB Adapter: 1 ID: 0

Read mode : Secure
Utilize accurate stream : Yes
Defeat audio cache : Yes
Make use of C2 pointers : No

Read offset correction : 6
Overread into Lead-In and Lead-Out : No
Fill up missing offset samples with silence : Yes
Delete leading and trailing silent blocks : No
Null samples used in CRC calculations : Yes
Used interface : Native Win32 interface for Win NT & 2000

Used output format : Internal WAV Routines
Sample format : 44.100 Hz; 16 Bit; Stereo

TOC of the extracted CD

Track | Start | Length | Start sector | End sector
———————————————————
1 | 0:00.00 | 4:40.03 | 0 | 21002
2 | 4:40.03 | 3:17.20 | 21003 | 35797
3 | 7:57.23 | 3:24.74 | 35798 | 51171
4 | 11:22.22 | 4:00.56 | 51172 | 69227
5 | 15:23.03 | 4:10.54 | 69228 | 88031
6 | 19:33.57 | 2:30.71 | 88032 | 99352
7 | 22:04.53 | 4:24.22 | 99353 | 119174
8 | 26:29.00 | 3:40.71 | 119175 | 135745
9 | 30:09.71 | 4:05.17 | 135746 | 154137
10 | 34:15.13 | 3:48.10 | 154138 | 171247
11 | 38:03.23 | 3:33.35 | 171248 | 187257
12 | 41:36.58 | 4:36.58 | 187258 | 208015
13 | 46:13.41 | 3:33.36 | 208016 | 224026
14 | 49:47.02 | 3:10.23 | 224027 | 238299

Range status and errors

Selected range

Filename C:\Users\Arturs\Desktop\Elvis Presley – That’s The Way It Is.wav

Peak level 100.0 %
Extraction speed 7.0 X
Range quality 100.0 %
Test CRC 9418B1C3
Copy CRC 9418B1C3
Copy OK

No errors occurred

AccurateRip summary

Track 1 accurately ripped (confidence 1) [C38F9125] (AR v2)
Track 2 accurately ripped (confidence 1) [EF7EA89E] (AR v2)
Track 3 accurately ripped (confidence 1) [03AC4439] (AR v2)
Track 4 accurately ripped (confidence 1) [EE2F323D] (AR v2)
Track 5 accurately ripped (confidence 1) [4C8D23EB] (AR v2)
Track 6 accurately ripped (confidence 1) [B9BDF1BD] (AR v2)
Track 7 accurately ripped (confidence 1) [64A8B2C1] (AR v2)
Track 8 accurately ripped (confidence 1) [24BAF164] (AR v2)
Track 9 accurately ripped (confidence 1) [113CEBB4] (AR v2)
Track 10 accurately ripped (confidence 1) [7795FB2E] (AR v2)
Track 11 accurately ripped (confidence 1) [38503ECF] (AR v2)
Track 12 accurately ripped (confidence 1) [85B14EF1] (AR v2)
Track 13 accurately ripped (confidence 1) [54A861C9] (AR v2)
Track 14 accurately ripped (confidence 1) [B98F5311] (AR v2)

All tracks accurately ripped

End of status report

—- CUETools DB Plugin V2.1.6

[CTDB TOCID: ImzueWlE3L1QUs8ivPZlWP4Izl8-] found
Submit result: ImzueWlE3L1QUs8ivPZlWP4Izl8- has been confirmed
Track | CTDB Status
1 | (8/8) Accurately ripped
2 | (8/8) Accurately ripped
3 | (8/8) Accurately ripped
4 | (8/8) Accurately ripped
5 | (8/8) Accurately ripped
6 | (8/8) Accurately ripped
7 | (8/8) Accurately ripped
8 | (8/8) Accurately ripped
9 | (8/8) Accurately ripped
10 | (8/8) Accurately ripped
11 | (8/8) Accurately ripped
12 | (8/8) Accurately ripped
13 | (8/8) Accurately ripped
14 | (8/8) Accurately ripped

==== Log checksum A0269329FBB3578B3E535E5734E57D1539BC22827C379AD0A9725FA501DA47D2 ====

REM DATE 1970
REM DISCID E00C690E
REM COMMENT “ExactAudioCopy v1.1”
PERFORMER “Elvis Presley”
TITLE “That’s The Way It Is”
FILE “Elvis Presley – That’s The Way It Is.flac” WAVE
TRACK 01 AUDIO
TITLE “I Just Can’t Help Believin’”
PERFORMER “Elvis Presley”
INDEX 01 00:00:00
TRACK 02 AUDIO
TITLE “Twenty Days And Twenty Nights”
PERFORMER “Elvis Presley”
INDEX 01 04:40:03
TRACK 03 AUDIO
TITLE “How The Web Was Woven”
PERFORMER “Elvis Presley”
INDEX 01 07:57:23
TRACK 04 AUDIO
TITLE “Patch It Up”
PERFORMER “Elvis Presley”
INDEX 01 11:22:22
TRACK 05 AUDIO
TITLE “Mary In The Morning”
PERFORMER “Elvis Presley”
INDEX 01 15:23:03
TRACK 06 AUDIO
TITLE “You Don’t Have To Say You Love Me”
PERFORMER “Elvis Presley”
INDEX 01 19:33:57
TRACK 07 AUDIO
TITLE “You’ve Lost That Lovin’ Feelin’”
PERFORMER “Elvis Presley”
INDEX 00 22:04:24
INDEX 01 22:04:53
TRACK 08 AUDIO
TITLE “I’ve Lost You”
PERFORMER “Elvis Presley”
FLAGS DCP
INDEX 01 26:29:00
TRACK 09 AUDIO
TITLE “Just Pretend”
PERFORMER “Elvis Presley”
INDEX 01 30:09:71
TRACK 10 AUDIO
TITLE “Stranger In The Crowd”
PERFORMER “Elvis Presley”
INDEX 00 34:13:44
INDEX 01 34:15:13
TRACK 11 AUDIO
TITLE “The Next Step Is Love”
PERFORMER “Elvis Presley”
INDEX 01 38:03:23
TRACK 12 AUDIO
TITLE “Bridge Over Troubled Water”
PERFORMER “Elvis Presley”
INDEX 01 41:36:58
TRACK 13 AUDIO
TITLE “I’ve Lost You (single version)”
PERFORMER “Elvis Presley”
INDEX 00 46:12:08
INDEX 01 46:13:41
TRACK 14 AUDIO
TITLE “Patch It Up (single version)”
PERFORMER “Elvis Presley”
FLAGS DCP
INDEX 00 49:45:69
INDEX 01 49:47:02


Leave a Reply

Your email address will not be published. Required fields are marked *

Enter the text from the image below
 

This site uses Akismet to reduce spam. Learn how your comment data is processed.