Elvis Presley – Raised On Rock / For Ol’ Times Sake (Reissue)




No Cover available

Artist: Elvis Presley
Year: 1973/2016
Genre: Rock
Notes: Discogs
Add. Notes: Reissue
Watch Songs on: YouTube
Cover incl.: Yes
Encoder: FLAC
Bitrate: ~800 kBit/s (44.1 kHz/16 Bit/s)
Log & Cue incl.: Yes/Yes
Size: 158 MB
Password: “slam” (without ” “)


All Downloads/Hosters are compatible

Download 1
KatFile.com
Turbobit.net
FileFactory.com
Rapidgator.net
Download 2
KatFile.com
Turbobit.net
FileFactory.com
Rapidgator.net

Tracklist:

1. Raised On Rock 
2. Are You Sincere 
3. Find Out What's Happening 
4. I Miss You 
5. Girl Of Mine 
6. For Ol' Times Sake 
7. If You Don't Come Back 
8. Just A Little Bit 
9. Sweet Angeline 
10. Three Corn Patches

EAC-Log, CUE-Sheed & NFO:

Click to open spoiler
Exact Audio Copy V1.1 from 23. June 2015

EAC extraction logfile from 26. April 2016, 8:47

Elvis Presley / Raised On Rock / For Ol’ Times Sake

Used drive : hp CDDVDW SH-216BB Adapter: 1 ID: 0

Read mode : Secure
Utilize accurate stream : Yes
Defeat audio cache : Yes
Make use of C2 pointers : No

Read offset correction : 6
Overread into Lead-In and Lead-Out : No
Fill up missing offset samples with silence : Yes
Delete leading and trailing silent blocks : No
Null samples used in CRC calculations : Yes
Used interface : Native Win32 interface for Win NT & 2000

Used output format : Internal WAV Routines
Sample format : 44.100 Hz; 16 Bit; Stereo

TOC of the extracted CD

Track | Start | Length | Start sector | End sector
———————————————————
1 | 0:00.00 | 2:43.01 | 0 | 12225
2 | 2:43.01 | 2:03.05 | 12226 | 21455
3 | 4:46.06 | 2:33.35 | 21456 | 32965
4 | 7:19.41 | 2:18.60 | 32966 | 43375
5 | 9:38.26 | 3:41.38 | 43376 | 59988
6 | 13:19.64 | 3:38.20 | 59989 | 76358
7 | 16:58.09 | 2:32.72 | 76359 | 87830
8 | 19:31.06 | 2:33.63 | 87831 | 99368
9 | 22:04.69 | 3:05.19 | 99369 | 113262
10 | 25:10.13 | 2:47.11 | 113263 | 125798

Range status and errors

Selected range

Filename C:\Users\Arturs\Desktop\Elvis Presley – Raised On Rock , For Ol’ Times Sake.wav

Peak level 96.8 %
Extraction speed 2.5 X
Range quality 100.0 %
Test CRC 04E55446
Copy CRC 04E55446
Copy OK

No errors occurred

AccurateRip summary

Track 1 accurately ripped (confidence 1) [59962DAD] (AR v2)
Track 2 accurately ripped (confidence 1) [7441AD02] (AR v2)
Track 3 accurately ripped (confidence 1) [18FB20D8] (AR v2)
Track 4 accurately ripped (confidence 1) [FA0019B8] (AR v2)
Track 5 accurately ripped (confidence 1) [AE04D780] (AR v2)
Track 6 accurately ripped (confidence 1) [2A00717D] (AR v2)
Track 7 accurately ripped (confidence 1) [01D29D49] (AR v2)
Track 8 accurately ripped (confidence 1) [905B03BA] (AR v2)
Track 9 accurately ripped (confidence 1) [507700E0] (AR v2)
Track 10 accurately ripped (confidence 1) [2A732AF0] (AR v2)

All tracks accurately ripped

End of status report

—- CUETools DB Plugin V2.1.6

[CTDB TOCID: Rdui0vvpwRhhpJnyxDIWIdeQltA-] found
Submit result: already submitted
Track | CTDB Status
1 | (10/10) Accurately ripped
2 | (10/10) Accurately ripped
3 | (10/10) Accurately ripped
4 | (10/10) Accurately ripped
5 | (10/10) Accurately ripped
6 | (10/10) Accurately ripped
7 | (10/10) Accurately ripped
8 | (10/10) Accurately ripped
9 | (10/10) Accurately ripped
10 | (10/10) Accurately ripped

==== Log checksum AD79FE5F96C77C1B652A05F7D86BF81820B87061892FFB4CDD7518DBF4013976 ====

REM DATE 1973
REM DISCID 63068D0A
REM COMMENT “ExactAudioCopy v1.1”
PERFORMER “Elvis Presley”
TITLE “Raised On Rock / For Ol’ Times Sake”
FILE “Elvis Presley – Raised On Rock , For Ol’ Times Sake.flac” WAVE
TRACK 01 AUDIO
TITLE “Raised on Rock”
PERFORMER “Elvis Presley”
INDEX 01 00:00:00
TRACK 02 AUDIO
TITLE “Are You Sincere”
PERFORMER “Elvis Presley”
INDEX 00 02:39:26
INDEX 01 02:43:01
TRACK 03 AUDIO
TITLE “Find Out What’s Happening”
PERFORMER “Elvis Presley”
INDEX 00 04:43:08
INDEX 01 04:46:06
TRACK 04 AUDIO
TITLE “I Miss You”
PERFORMER “Elvis Presley”
INDEX 00 07:16:69
INDEX 01 07:19:41
TRACK 05 AUDIO
TITLE “Girl of Mine”
PERFORMER “Elvis Presley”
INDEX 00 09:32:13
INDEX 01 09:38:26
TRACK 06 AUDIO
TITLE “For Ol’ Times Sake”
PERFORMER “Elvis Presley”
INDEX 00 13:16:52
INDEX 01 13:19:64
TRACK 07 AUDIO
TITLE “If You Don’t Come Back”
PERFORMER “Elvis Presley”
INDEX 00 16:56:52
INDEX 01 16:58:09
TRACK 08 AUDIO
TITLE “Just a Little Bit”
PERFORMER “Elvis Presley”
INDEX 00 19:28:17
INDEX 01 19:31:06
TRACK 09 AUDIO
TITLE “Sweet Angeline”
PERFORMER “Elvis Presley”
INDEX 00 22:02:40
INDEX 01 22:04:69
TRACK 10 AUDIO
TITLE “Three Corn Patches”
PERFORMER “Elvis Presley”
INDEX 00 25:06:46
INDEX 01 25:10:13


Leave a Reply

Your email address will not be published. Required fields are marked *

Enter the text from the image below
 

This site uses Akismet to reduce spam. Learn how your comment data is processed.