Elvis Presley – Pot Luck




No Cover available

Artist: Elvis Presley
Year: 1962/2016
Genre: Rock
Notes: Discogs
Add. Notes:
Watch Songs on: YouTube
Cover incl.: Yes
Encoder: FLAC
Bitrate: ~800 kBit/s (44.1 kHz/16 Bit/s)
Log & Cue incl.: Yes/Yes
Size: 172,3 MB
Password: “slam” (without ” “)


All Downloads/Hosters are compatible

Download 1
KatFile.com
Turbobit.net
Rapidgator.net
FileFactory.com
Download 2
KatFile.com
Turbobit.net
Rapidgator.net
FileFactory.com

Tracklist:

1. Kiss Me Quick 	
2. Just For Old Time Sake 	
3. Gonna Get Back Home Somehow 	
4. (Such An) Easy Question 	
5. Steppin' Out Of Line 	
6. I'm Yours 	
7. Something Blue 	
8. Suspicion 	
9. I Feel That I've Known You Forever 	
10. Night Rider 	
11. Fountain Of Love 	
12. That's Someone You Never Forget

EAC-Log, CUE-Sheed & NFO:

Click to open spoiler
Exact Audio Copy V1.1 from 23. June 2015

EAC extraction logfile from 25. March 2016, 12:31

Elvis Presley / Pot Luck

Used drive : hp CDDVDW SH-216BB Adapter: 1 ID: 0

Read mode : Secure
Utilize accurate stream : Yes
Defeat audio cache : Yes
Make use of C2 pointers : No

Read offset correction : 6
Overread into Lead-In and Lead-Out : No
Fill up missing offset samples with silence : Yes
Delete leading and trailing silent blocks : No
Null samples used in CRC calculations : Yes
Used interface : Native Win32 interface for Win NT & 2000

Used output format : Internal WAV Routines
Sample format : 44.100 Hz; 16 Bit; Stereo

TOC of the extracted CD

Track | Start | Length | Start sector | End sector
———————————————————
1 | 0:00.00 | 2:49.65 | 0 | 12739
2 | 2:49.65 | 2:11.38 | 12740 | 22602
3 | 5:01.28 | 2:31.68 | 22603 | 33995
4 | 7:33.21 | 2:22.43 | 33996 | 44688
5 | 9:55.64 | 1:56.28 | 44689 | 53416
6 | 11:52.17 | 2:23.24 | 53417 | 64165
7 | 14:15.41 | 3:00.74 | 64166 | 77739
8 | 17:16.40 | 2:37.16 | 77740 | 89530
9 | 19:53.56 | 1:43.09 | 89531 | 97264
10 | 21:36.65 | 2:12.17 | 97265 | 107181
11 | 23:49.07 | 2:19.15 | 107182 | 117621
12 | 26:08.22 | 2:48.01 | 117622 | 130222

Range status and errors

Selected range

Filename C:\Users\Arturs\Desktop\Elvis Presley – Pot Luck.wav

Peak level 98.2 %
Extraction speed 2.5 X
Range quality 100.0 %
Test CRC 5472C6F9
Copy CRC 5472C6F9
Copy OK

No errors occurred

AccurateRip summary

Track 1 not present in database
Track 2 not present in database
Track 3 not present in database
Track 4 not present in database
Track 5 not present in database
Track 6 not present in database
Track 7 not present in database
Track 8 not present in database
Track 9 not present in database
Track 10 not present in database
Track 11 not present in database
Track 12 not present in database

None of the tracks are present in the AccurateRip database

End of status report

—- CUETools DB Plugin V2.1.6

[CTDB TOCID: 5aanZ2oXtIVobK6y89jvSudiW0E-] found
Submit result: 5aanZ2oXtIVobK6y89jvSudiW0E- has been confirmed
Track | CTDB Status
1 | (3/3) Accurately ripped
2 | (3/3) Accurately ripped
3 | (3/3) Accurately ripped
4 | (3/3) Accurately ripped
5 | (3/3) Accurately ripped
6 | (3/3) Accurately ripped
7 | (3/3) Accurately ripped
8 | (3/3) Accurately ripped
9 | (3/3) Accurately ripped
10 | (3/3) Accurately ripped
11 | (3/3) Accurately ripped
12 | (3/3) Accurately ripped

==== Log checksum 8A6FDF41D0E343A2F176B42024C73AAF5CE12DEC5185301065A5F4EA8EBFA1C7 ====

REM GENRE Rock
REM DATE 1962
REM DISCID 9A06C80C
REM COMMENT “ExactAudioCopy v1.1”
PERFORMER “Elvis Presley”
TITLE “Pot Luck”
FILE “Elvis Presley – Pot Luck.flac” WAVE
TRACK 01 AUDIO
TITLE “Kiss Me Quick”
PERFORMER “Elvis Presley”
INDEX 01 00:00:00
TRACK 02 AUDIO
TITLE “Just For Old Times Sake”
PERFORMER “Elvis Presley”
INDEX 00 02:47:28
INDEX 01 02:49:65
TRACK 03 AUDIO
TITLE “Gonna Get Back Home Somehow”
PERFORMER “Elvis Presley”
INDEX 00 04:58:70
INDEX 01 05:01:28
TRACK 04 AUDIO
TITLE “(Such an) Easy Question”
PERFORMER “Elvis Presley”
INDEX 00 07:30:43
INDEX 01 07:33:21
TRACK 05 AUDIO
TITLE “Steppin’ Out Of Line (from ‘Blue Hawaii’)”
PERFORMER “Elvis Presley”
INDEX 00 09:54:04
INDEX 01 09:55:64
TRACK 06 AUDIO
TITLE “I’m Yours”
PERFORMER “Elvis Presley”
INDEX 00 11:49:18
INDEX 01 11:52:17
TRACK 07 AUDIO
TITLE “Something Blue”
PERFORMER “Elvis Presley”
INDEX 00 14:13:05
INDEX 01 14:15:41
TRACK 08 AUDIO
TITLE “Suspicion”
PERFORMER “Elvis Presley”
INDEX 00 17:14:52
INDEX 01 17:16:40
TRACK 09 AUDIO
TITLE “I Feel That I’ve Known You Forever”
PERFORMER “Elvis Presley”
INDEX 00 19:52:10
INDEX 01 19:53:56
TRACK 10 AUDIO
TITLE “Night Rider”
PERFORMER “Elvis Presley”
INDEX 00 21:35:16
INDEX 01 21:36:65
TRACK 11 AUDIO
TITLE “Fountain Of Love”
PERFORMER “Elvis Presley”
INDEX 00 23:46:55
INDEX 01 23:49:07
TRACK 12 AUDIO
TITLE “That’s Someone You Never Forget”
PERFORMER “Elvis Presley”
INDEX 00 26:04:08
INDEX 01 26:08:22


Leave a Reply

Your email address will not be published. Required fields are marked *

Enter the text from the image below
 

This site uses Akismet to reduce spam. Learn how your comment data is processed.