Elvis Presley – Moody Blue




No Cover available

Artist: Elvis Presley
Year: 1977/2016
Genre: Rock
Notes: Discogs
Add. Notes:
Watch Songs on: YouTube
Cover incl.: Yes
Encoder: FLAC
Bitrate: ~800 kBit/s (44.1 kHz/16 Bit/s)
Log & Cue incl.: Yes/Yes
Size: 190,8 MB
Password: “slam” (without ” “)


All Downloads/Hosters are compatible

Download 1
KatFile.com
Turbobit.net
FileFactory.com
Rapidgator.net
Download 2
KatFile.com
Turbobit.net
FileFactory.com
Rapidgator.net

Tracklist:

1. Unchained Melody 
2. If You Love Me (Let Me Know) 
3. Little Darlin' 
4. He'll Have To Go 
5. Let Me Be There 
6. Way Down 
7. Pledging My Love 
8. Moody Blue 
9. She Thinks I Still Care 
10. It's Easy For You

EAC-Log, CUE-Sheed & NFO:

Click to open spoiler
Elvis Presley / Moody Blue

Used drive : hp CDDVDW SH-216BB Adapter: 1 ID: 0

Read mode : Secure
Utilize accurate stream : Yes
Defeat audio cache : Yes
Make use of C2 pointers : No

Read offset correction : 6
Overread into Lead-In and Lead-Out : No
Fill up missing offset samples with silence : Yes
Delete leading and trailing silent blocks : No
Null samples used in CRC calculations : Yes
Used interface : Native Win32 interface for Win NT & 2000

Used output format : Internal WAV Routines
Sample format : 44.100 Hz; 16 Bit; Stereo

TOC of the extracted CD

Track | Start | Length | Start sector | End sector
———————————————————
1 | 0:00.00 | 2:34.69 | 0 | 11618
2 | 2:34.69 | 3:01.09 | 11619 | 25202
3 | 5:36.03 | 1:55.37 | 25203 | 33864
4 | 7:31.40 | 4:34.47 | 33865 | 54461
5 | 12:06.12 | 3:36.55 | 54462 | 70716
6 | 15:42.67 | 2:40.55 | 70717 | 82771
7 | 18:23.47 | 2:53.40 | 82772 | 95786
8 | 21:17.12 | 2:51.44 | 95787 | 108655
9 | 24:08.56 | 3:52.70 | 108656 | 126125
10 | 28:01.51 | 3:27.16 | 126126 | 141666

Range status and errors

Selected range

Filename C:\Users\Arturs\Desktop\Elvis Presley – Moody Blue.wav

Peak level 98.3 %
Extraction speed 2.5 X
Range quality 100.0 %
Test CRC B560B971
Copy CRC B560B971
Copy OK

No errors occurred

AccurateRip summary

Track 1 accurately ripped (confidence 1) [7A7AE716] (AR v2)
Track 2 accurately ripped (confidence 1) [A4064E70] (AR v2)
Track 3 accurately ripped (confidence 1) [B5FF696F] (AR v2)
Track 4 accurately ripped (confidence 1) [6E78A3AD] (AR v2)
Track 5 accurately ripped (confidence 1) [C273DE31] (AR v2)
Track 6 accurately ripped (confidence 1) [A43FB31B] (AR v2)
Track 7 accurately ripped (confidence 1) [003BE293] (AR v2)
Track 8 accurately ripped (confidence 1) [75F85064] (AR v2)
Track 9 accurately ripped (confidence 1) [D0974B20] (AR v2)
Track 10 accurately ripped (confidence 1) [468585AB] (AR v2)

All tracks accurately ripped

End of status report

—- CUETools DB Plugin V2.1.6

[CTDB TOCID: mUv7xxtCZw6oU5UZNSVUsHS70BI-] found
Submit result: mUv7xxtCZw6oU5UZNSVUsHS70BI- has been confirmed
Track | CTDB Status
1 | (8/8) Accurately ripped
2 | (8/8) Accurately ripped
3 | (8/8) Accurately ripped
4 | (8/8) Accurately ripped
5 | (8/8) Accurately ripped
6 | (8/8) Accurately ripped
7 | (8/8) Accurately ripped
8 | (8/8) Accurately ripped
9 | (8/8) Accurately ripped
10 | (8/8) Accurately ripped

==== Log checksum 827BC983665CE7A199F63E750F344CA8A92D0045FA01961D4437A27BFC0D407A ====

REM DATE 1977
REM DISCID 8007600A
REM COMMENT “ExactAudioCopy v1.1”
PERFORMER “Elvis Presley”
TITLE “Moody Blue”
FILE “Elvis Presley – Moody Blue.flac” WAVE
TRACK 01 AUDIO
TITLE “Unchained Melody”
PERFORMER “Elvis Presley”
INDEX 01 00:00:00
TRACK 02 AUDIO
TITLE “If You Love Me (Let Me Know)”
PERFORMER “Elvis Presley”
INDEX 00 02:31:68
INDEX 01 02:34:69
TRACK 03 AUDIO
TITLE “Little Darlin'”
PERFORMER “Elvis Presley”
INDEX 00 05:33:20
INDEX 01 05:36:03
TRACK 04 AUDIO
TITLE “He’ll Have To Go”
PERFORMER “Elvis Presley”
INDEX 00 07:29:08
INDEX 01 07:31:40
TRACK 05 AUDIO
TITLE “Let Me Be There”
PERFORMER “Elvis Presley”
INDEX 00 12:03:30
INDEX 01 12:06:12
TRACK 06 AUDIO
TITLE “Way Down”
PERFORMER “Elvis Presley”
INDEX 00 15:40:10
INDEX 01 15:42:67
TRACK 07 AUDIO
TITLE “Pledging My Love”
PERFORMER “Elvis Presley”
INDEX 00 18:20:68
INDEX 01 18:23:47
TRACK 08 AUDIO
TITLE “Moody Blue”
PERFORMER “Elvis Presley”
INDEX 00 21:15:06
INDEX 01 21:17:12
TRACK 09 AUDIO
TITLE “She Thinks I Still Care”
PERFORMER “Elvis Presley”
INDEX 00 24:06:36
INDEX 01 24:08:56
TRACK 10 AUDIO
TITLE “It’s Easy For You”
PERFORMER “Elvis Presley”
INDEX 00 27:59:71
INDEX 01 28:01:51


Leave a Reply

Your email address will not be published. Required fields are marked *

Enter the text from the image below
 

This site uses Akismet to reduce spam. Learn how your comment data is processed.