Elvis Presley – Love Letters From Elvis (Reissue)




Artist: Elvis Presley
Year: 1971/2016
Genre: Rock
Notes: Discogs
Add. Notes: Reissue
Cover incl.: Yes
Encoder: FLAC
Bitrate: ~900 kBit/s (44.1 kHz/16 Bit/s)
Log & Cue incl.: Yes
Size: 257,36 MB
Password: “slam” (without ” “)


All Downloads/Hosters are compatible

Download 1
KatFile.com
Turbobit.net
FileFactory.com
Rapidgator.net
Download 2
KatFile.com
Turbobit.net
FileFactory.com
Rapidgator.net

Tracklist:

1 Love Letters
2 When I'm Over You
3 If I Were You
4a Got My Mojo Working
4b Keep Your Hands Off Of It
5 Heart Of Rome
6 Only Believe
7 This Is Our Dance
8 Cindy, Cindy
9 I'll Never Know
10 It Ain't No Big Thing (But It's Growing)
11 Life
12 The Sound Of Your Cry
13 Where Did They Go, Lord
14 Rags To Riches

EAC-Log, CUE-Sheed & NFO:

Click to open spoiler
Exact Audio Copy V1.1 from 23. June 2015

EAC extraction logfile from 17. April 2016, 9:43

Elvis Presley / Love Letters From Elvis

Used drive : hp CDDVDW SH-216BB Adapter: 1 ID: 0

Read mode : Secure
Utilize accurate stream : Yes
Defeat audio cache : Yes
Make use of C2 pointers : No

Read offset correction : 6
Overread into Lead-In and Lead-Out : No
Fill up missing offset samples with silence : Yes
Delete leading and trailing silent blocks : No
Null samples used in CRC calculations : Yes
Used interface : Native Win32 interface for Win NT & 2000

Used output format : Internal WAV Routines
Sample format : 44.100 Hz; 16 Bit; Stereo

TOC of the extracted CD

Track | Start | Length | Start sector | End sector
———————————————————
1 | 0:00.00 | 2:54.50 | 0 | 13099
2 | 2:54.50 | 2:29.62 | 13100 | 24336
3 | 5:24.37 | 3:03.10 | 24337 | 38071
4 | 8:27.47 | 4:39.25 | 38072 | 59021
5 | 13:06.72 | 2:58.51 | 59022 | 72422
6 | 16:05.48 | 2:52.34 | 72423 | 85356
7 | 18:58.07 | 3:17.13 | 85357 | 100144
8 | 22:15.20 | 2:35.27 | 100145 | 111796
9 | 24:50.47 | 2:27.53 | 111797 | 122874
10 | 27:18.25 | 2:50.00 | 122875 | 135624
11 | 30:08.25 | 3:13.02 | 135625 | 150101
12 | 33:21.27 | 3:18.36 | 150102 | 164987
13 | 36:39.63 | 2:30.32 | 164988 | 176269
14 | 39:10.20 | 1:55.69 | 176270 | 184963

Range status and errors

Selected range

Filename C:\Users\Arturs\Desktop\Elvis Presley – Love Letters From Elvis.wav

Peak level 99.3 %
Extraction speed 2.7 X
Range quality 100.0 %
Test CRC 4EC3D850
Copy CRC 4EC3D850
Copy OK

No errors occurred

AccurateRip summary

Track 1 accurately ripped (confidence 1) [B97DADB9] (AR v2)
Track 2 accurately ripped (confidence 1) [27D5BEF6] (AR v2)
Track 3 accurately ripped (confidence 1) [E5846ABF] (AR v2)
Track 4 accurately ripped (confidence 1) [7825BF90] (AR v2)
Track 5 accurately ripped (confidence 1) [0ED71519] (AR v2)
Track 6 accurately ripped (confidence 1) [C9EE7518] (AR v2)
Track 7 accurately ripped (confidence 1) [EB73F078] (AR v2)
Track 8 accurately ripped (confidence 1) [FE32F54D] (AR v2)
Track 9 accurately ripped (confidence 1) [87AB4D0A] (AR v2)
Track 10 accurately ripped (confidence 1) [5FE47EA2] (AR v2)
Track 11 accurately ripped (confidence 1) [F29DEC0D] (AR v2)
Track 12 accurately ripped (confidence 1) [E529F447] (AR v2)
Track 13 accurately ripped (confidence 1) [AAF3FD6C] (AR v2)
Track 14 accurately ripped (confidence 1) [B3346379] (AR v2)

All tracks accurately ripped

End of status report

—- CUETools DB Plugin V2.1.6

[CTDB TOCID: NNyJVg_KDiFJmEAQB4GRj6sseSc-] found
Submit result: NNyJVg_KDiFJmEAQB4GRj6sseSc- has been confirmed
Track | CTDB Status
1 | (9/9) Accurately ripped
2 | (9/9) Accurately ripped
3 | (9/9) Accurately ripped
4 | (9/9) Accurately ripped
5 | (9/9) Accurately ripped
6 | (9/9) Accurately ripped
7 | (9/9) Accurately ripped
8 | (9/9) Accurately ripped
9 | (9/9) Accurately ripped
10 | (9/9) Accurately ripped
11 | (9/9) Accurately ripped
12 | (9/9) Accurately ripped
13 | (9/9) Accurately ripped
14 | (9/9) Accurately ripped

==== Log checksum 3391CFEA5D646EC9EAC3AB5A5D9F8B6824E8D0F7015A8E8550FDB5F204F1F671 ====

REM DATE 1971
REM DISCID A509A20E
REM COMMENT “ExactAudioCopy v1.1”
PERFORMER “Elvis Presley”
TITLE “Love Letters From Elvis”
FILE “Elvis Presley – Love Letters From Elvis.flac” WAVE
TRACK 01 AUDIO
TITLE “Love Letters”
PERFORMER “Elvis Presley”
INDEX 01 00:00:00
TRACK 02 AUDIO
TITLE “When I’m Over You”
PERFORMER “Elvis Presley”
INDEX 00 02:51:05
INDEX 01 02:54:50
TRACK 03 AUDIO
TITLE “If I Were You”
PERFORMER “Elvis Presley”
INDEX 00 05:21:30
INDEX 01 05:24:37
TRACK 04 AUDIO
TITLE “Got My Mojo Working”
PERFORMER “Elvis Presley”
INDEX 00 08:25:23
INDEX 01 08:27:47
TRACK 05 AUDIO
TITLE “Heart Of Rome”
PERFORMER “Elvis Presley”
INDEX 00 13:02:59
INDEX 01 13:06:72
TRACK 06 AUDIO
TITLE “Only Believe”
PERFORMER “Elvis Presley”
INDEX 00 16:02:41
INDEX 01 16:05:48
TRACK 07 AUDIO
TITLE “This Is Our Dance”
PERFORMER “Elvis Presley”
INDEX 00 18:53:65
INDEX 01 18:58:07
TRACK 08 AUDIO
TITLE “Cindy, Cindy”
PERFORMER “Elvis Presley”
INDEX 00 22:12:14
INDEX 01 22:15:20
TRACK 09 AUDIO
TITLE “I’ll Never Know”
PERFORMER “Elvis Presley”
INDEX 00 24:48:02
INDEX 01 24:50:47
TRACK 10 AUDIO
TITLE “It Ain’t No Big Thing (But It’s Growing)”
PERFORMER “Elvis Presley”
INDEX 00 27:14:56
INDEX 01 27:18:25
TRACK 11 AUDIO
TITLE “Life”
PERFORMER “Elvis Presley”
INDEX 00 30:05:03
INDEX 01 30:08:25
TRACK 12 AUDIO
TITLE “The Sound Of Your Cry”
PERFORMER “Elvis Presley”
INDEX 00 33:18:46
INDEX 01 33:21:27
TRACK 13 AUDIO
TITLE “Where Did They Go, Lord”
PERFORMER “Elvis Presley”
INDEX 00 36:37:06
INDEX 01 36:39:63
TRACK 14 AUDIO
TITLE “Rags To Riches”
PERFORMER “Elvis Presley”
INDEX 00 39:07:38
INDEX 01 39:10:20


Leave a Reply

Your email address will not be published. Required fields are marked *

Enter the text from the image below
 

This site uses Akismet to reduce spam. Learn how your comment data is processed.