Elvis Presley – It Happened At The World’s Fair




No Cover available


Artist: Elvis Presley
Year: 1963/2016
Genre: Rock
Notes: Discogs
Add. Notes:
Watch Songs on: YouTube
Cover incl.: Yes
Encoder: FLAC
Bitrate: ~800 kBit/s (44.1 kHz/16 Bit/s)
Log & Cue incl.: Yes/Yes
Size: 131,3 MB
Password: “slam” (without ” “)


All Downloads/Hosters are compatible

Download 1
KatFile.com
Turbobit.net
Rapidgator.net
FileFactory.com
Download 2
KatFile.com
Turbobit.net
Rapidgator.net
FileFactory.com

Tracklist:

1. Beyond The Bend 	
2. Relax 	
3. Take Me To The Fair 	
4. They Remind Me Too Much Of You 	
5. One Broken Heart For Sale 	
6. I'm Falling In Love Tonight 	
7. Cotton Candy Land 	
8. A World Of Our Own 	
9. How Would You Like To Be 	
10. Happy Ending

EAC-Log, CUE-Sheed & NFO:

Click to open spoiler
Exact Audio Copy V1.1 from 23. June 2015

EAC extraction logfile from 26. March 2016, 13:05

Elvis Presley / It Happened At The World’s Fair

Used drive : hp CDDVDW SH-216BB Adapter: 1 ID: 0

Read mode : Secure
Utilize accurate stream : Yes
Defeat audio cache : Yes
Make use of C2 pointers : No

Read offset correction : 6
Overread into Lead-In and Lead-Out : No
Fill up missing offset samples with silence : Yes
Delete leading and trailing silent blocks : No
Null samples used in CRC calculations : Yes
Used interface : Native Win32 interface for Win NT & 2000

Used output format : Internal WAV Routines
Sample format : 44.100 Hz; 16 Bit; Stereo

TOC of the extracted CD

Track | Start | Length | Start sector | End sector
———————————————————
1 | 0:00.00 | 1:53.63 | 0 | 8537
2 | 1:53.63 | 2:23.66 | 8538 | 19328
3 | 4:17.54 | 1:37.39 | 19329 | 26642
4 | 5:55.18 | 2:34.31 | 26643 | 38223
5 | 8:29.49 | 1:38.18 | 38224 | 45591
6 | 10:07.67 | 1:43.33 | 45592 | 53349
7 | 11:51.25 | 1:36.65 | 53350 | 60614
8 | 13:28.15 | 2:17.13 | 60615 | 70902
9 | 15:45.28 | 3:30.14 | 70903 | 86666
10 | 19:15.42 | 2:10.13 | 86667 | 96429

Range status and errors

Selected range

Filename C:\Users\Arturs\Desktop\Elvis Presley – It Happened At The World’s Fair.wav

Peak level 99.7 %
Extraction speed 2.3 X
Range quality 100.0 %
Test CRC D83559DB
Copy CRC D83559DB
Copy OK

No errors occurred

AccurateRip summary

Track 1 not present in database
Track 2 not present in database
Track 3 not present in database
Track 4 not present in database
Track 5 not present in database
Track 6 not present in database
Track 7 not present in database
Track 8 not present in database
Track 9 not present in database
Track 10 not present in database

None of the tracks are present in the AccurateRip database

End of status report

—- CUETools DB Plugin V2.1.6

[CTDB TOCID: fAJd1JI6ltQewdPn5m54J.U62fk-] found
Submit result: fAJd1JI6ltQewdPn5m54J.U62fk- has been confirmed
Track | CTDB Status
1 | (3/3) Accurately ripped
2 | (3/3) Accurately ripped
3 | (3/3) Accurately ripped
4 | (3/3) Accurately ripped
5 | (3/3) Accurately ripped
6 | (3/3) Accurately ripped
7 | (3/3) Accurately ripped
8 | (3/3) Accurately ripped
9 | (3/3) Accurately ripped
10 | (3/3) Accurately ripped

==== Log checksum F40AB6D0FD8FE128DEA5DFF403BF61410FD77A0764CC532EF3288E4DB15A7BC0 ====

REM GENRE Oldies
REM DATE 1963
REM DISCID 7405050A
REM COMMENT “ExactAudioCopy v1.1”
PERFORMER “Elvis Presley”
TITLE “It Happened At The World’s Fair”
FILE “Elvis Presley – It Happened At The World’s Fair.flac” WAVE
TRACK 01 AUDIO
TITLE “Beyond The Bend”
PERFORMER “Elvis Presley”
INDEX 01 00:00:00
TRACK 02 AUDIO
TITLE “Relax”
PERFORMER “Elvis Presley”
INDEX 00 01:51:59
INDEX 01 01:53:63
TRACK 03 AUDIO
TITLE “Take Me To The Fair”
PERFORMER “Elvis Presley”
INDEX 00 04:15:34
INDEX 01 04:17:54
TRACK 04 AUDIO
TITLE “They Remind Me Too Much Of You”
PERFORMER “Elvis Presley”
INDEX 00 05:53:13
INDEX 01 05:55:18
TRACK 05 AUDIO
TITLE “One Broken Heart For Sale”
PERFORMER “Elvis Presley”
INDEX 00 08:27:51
INDEX 01 08:29:49
TRACK 06 AUDIO
TITLE “I’m Falling In Love Tonight”
PERFORMER “Elvis Presley”
INDEX 00 10:05:28
INDEX 01 10:07:67
TRACK 07 AUDIO
TITLE “Cotton Candy Land”
PERFORMER “Elvis Presley”
INDEX 00 11:49:01
INDEX 01 11:51:25
TRACK 08 AUDIO
TITLE “A World Of Our Own”
PERFORMER “Elvis Presley”
INDEX 00 13:26:14
INDEX 01 13:28:15
TRACK 09 AUDIO
TITLE “How Would You Like To Be”
PERFORMER “Elvis Presley”
INDEX 00 15:42:53
INDEX 01 15:45:28
TRACK 10 AUDIO
TITLE “Happy Ending”
PERFORMER “Elvis Presley”
INDEX 00 19:13:13
INDEX 01 19:15:42


0

Publication author

offline 4 days

Chaos

3
Comments: 4Publics: 3565Registration: 02-02-2019
Spread the Download

Leave a Reply

Your email address will not be published. Required fields are marked *

Enter the text from the image below
 

This site uses Akismet to reduce spam. Learn how your comment data is processed.