Elvis Presley – I Got Lucky (Reissue)




[Total: 0    Average: 0/5]

Artist: Elvis Presley
Year: 1971/2016
Genre: Rock
Notes: Discogs
Add. Notes: Reissue
Cover incl.: Yes
Encoder: FLAC
Bitrate: ~800 kBit/s (44.1 kHz/16 Bit/s)
Log & Cue incl.: Yes
Size: 152,6 MB
Password: “slam” (without ” “)


All Downloads/Hosters are compatible

Download 1
KatFile.com
Turbobit.net
FileFactory.com
Rapidgator.net
Download 2
KatFile.com
Turbobit.net
FileFactory.com
Rapidgator.net

Tracklist:

1. I Got Lucky 
2. What A Wonderful Life 
3. I Need Somebody To Lean On 
4. Yoga Is As Yoga Does 
5. Riding The Rainbow 
6. Fools Fall In Love 
7. The Love Machine 
8. Home Is Where the Heart Is 
9. You Gotta Stop 
10. If You Think I Don't Need You 
11. You're The Boss 
12. Come What May

EAC-Log, CUE-Sheed & NFO:

Click to open spoiler
Exact Audio Copy V1.1 from 23. June 2015

EAC extraction logfile from 17. April 2016, 20:15

Elvis Presley / I Got Lucky

Used drive : hp CDDVDW SH-216BB Adapter: 1 ID: 0

Read mode : Secure
Utilize accurate stream : Yes
Defeat audio cache : Yes
Make use of C2 pointers : No

Read offset correction : 6
Overread into Lead-In and Lead-Out : No
Fill up missing offset samples with silence : Yes
Delete leading and trailing silent blocks : No
Null samples used in CRC calculations : Yes
Used interface : Native Win32 interface for Win NT & 2000

Used output format : Internal WAV Routines
Sample format : 44.100 Hz; 16 Bit; Stereo

TOC of the extracted CD

Track | Start | Length | Start sector | End sector
———————————————————
1 | 0:00.00 | 1:56.23 | 0 | 8722
2 | 1:56.23 | 2:28.19 | 8723 | 19841
3 | 4:24.42 | 3:03.09 | 19842 | 33575
4 | 7:27.51 | 2:10.20 | 33576 | 43345
5 | 9:37.71 | 1:39.72 | 43346 | 50842
6 | 11:17.68 | 2:06.54 | 50843 | 60346
7 | 13:24.47 | 2:50.60 | 60347 | 73156
8 | 16:15.32 | 1:52.28 | 73157 | 81584
9 | 18:07.60 | 2:19.33 | 81585 | 92042
10 | 20:27.18 | 2:05.41 | 92043 | 101458
11 | 22:32.59 | 2:46.57 | 101459 | 113965
12 | 25:19.41 | 2:00.35 | 113966 | 123000

Range status and errors

Selected range

Filename C:\Users\Arturs\Desktop\Elvis Presley – I Got Lucky.wav

Peak level 98.2 %
Extraction speed 2.5 X
Range quality 100.0 %
Test CRC 7F92C91C
Copy CRC 7F92C91C
Copy OK

No errors occurred

AccurateRip summary

Track 1 accurately ripped (confidence 1) [3CDB0EED] (AR v2)
Track 2 accurately ripped (confidence 1) [E5510953] (AR v2)
Track 3 accurately ripped (confidence 1) [12A7FC96] (AR v2)
Track 4 accurately ripped (confidence 1) [C0BC14A9] (AR v2)
Track 5 accurately ripped (confidence 1) [81032380] (AR v2)
Track 6 accurately ripped (confidence 1) [A5138794] (AR v2)
Track 7 accurately ripped (confidence 1) [684FB568] (AR v2)
Track 8 accurately ripped (confidence 1) [B90B3DF6] (AR v2)
Track 9 accurately ripped (confidence 1) [8D2A0491] (AR v2)
Track 10 accurately ripped (confidence 1) [4FCD215A] (AR v2)
Track 11 accurately ripped (confidence 1) [C2BA2026] (AR v2)
Track 12 accurately ripped (confidence 1) [4F12D479] (AR v2)

All tracks accurately ripped

End of status report

—- CUETools DB Plugin V2.1.6

[CTDB TOCID: mLyrLgC4CxVjV6PoD1dprtaDbd8-] found
Submit result: mLyrLgC4CxVjV6PoD1dprtaDbd8- has been confirmed
Track | CTDB Status
1 | (8/8) Accurately ripped
2 | (8/8) Accurately ripped
3 | (8/8) Accurately ripped
4 | (8/8) Accurately ripped
5 | (8/8) Accurately ripped
6 | (8/8) Accurately ripped
7 | (8/8) Accurately ripped
8 | (8/8) Accurately ripped
9 | (8/8) Accurately ripped
10 | (8/8) Accurately ripped
11 | (8/8) Accurately ripped
12 | (8/8) Accurately ripped

==== Log checksum C5A93A2940A95CE86EBC0E93A04A538D3C1C79E232CFAEBC8908F0E370018516 ====

REM DATE 1971
REM DISCID B106680C
REM COMMENT “ExactAudioCopy v1.1”
PERFORMER “Elvis Presley”
TITLE “I Got Lucky”
FILE “Elvis Presley – I Got Lucky.flac” WAVE
TRACK 01 AUDIO
TITLE “I Got Lucky”
PERFORMER “Elvis Presley”
INDEX 01 00:00:00
TRACK 02 AUDIO
TITLE “What A Wonderful Life”
PERFORMER “Elvis Presley”
INDEX 00 01:55:54
INDEX 01 01:56:23
TRACK 03 AUDIO
TITLE “I Need Somebody To Lean On”
PERFORMER “Elvis Presley”
INDEX 00 04:23:41
INDEX 01 04:24:42
TRACK 04 AUDIO
TITLE “Yoga Is As Yoga Does”
PERFORMER “Elvis Presley”
INDEX 00 07:25:70
INDEX 01 07:27:51
TRACK 05 AUDIO
TITLE “Riding The Rainbow”
PERFORMER “Elvis Presley”
INDEX 00 09:37:30
INDEX 01 09:37:71
TRACK 06 AUDIO
TITLE “Fools Fall In Love”
PERFORMER “Elvis Presley”
INDEX 00 11:16:63
INDEX 01 11:17:68
TRACK 07 AUDIO
TITLE “The Love Machine”
PERFORMER “Elvis Presley”
INDEX 00 13:23:32
INDEX 01 13:24:47
TRACK 08 AUDIO
TITLE “Home Is Where The Heart Is”
PERFORMER “Elvis Presley”
INDEX 00 16:14:13
INDEX 01 16:15:32
TRACK 09 AUDIO
TITLE “You Gotta Stop”
PERFORMER “Elvis Presley”
INDEX 00 18:06:41
INDEX 01 18:07:60
TRACK 10 AUDIO
TITLE “If You Think I Don’t Need You”
PERFORMER “Elvis Presley”
INDEX 00 20:26:14
INDEX 01 20:27:18
TRACK 11 AUDIO
TITLE “You’re The Boss”
PERFORMER “Elvis Presley”
INDEX 00 22:32:30
INDEX 01 22:32:59
TRACK 12 AUDIO
TITLE “Come What May”
PERFORMER “Elvis Presley”
INDEX 00 25:17:55
INDEX 01 25:19:41


Spread the Download

Leave a Reply

Your email address will not be published. Required fields are marked *

Enter the text from the image below
 

This site uses Akismet to reduce spam. Learn how your comment data is processed.