Elvis Presley – His Hand In Mine




No Cover available


Artist: Elvis Presley
Year: 1960/2016
Genre: Rock
Notes: Discogs
Add. Notes:
Watch Songs on: YouTube
Cover incl.: Yes
Encoder: FLAC
Bitrate: ~800 kBit/s (44.1 kHz/16 Bit/s)
Log & Cue incl.: Yes/Yes
Size: 176,09 MB
Password: “slam” (without ” “)


All Downloads/Hosters are compatible

Download 1
KatFile.com
Turbobit.net
Rapidgator.net
FileFactory.com
Download 2
KatFile.com
Turbobit.net
Rapidgator.net
FileFactory.com

Tracklist:

1. His Hand In Mine 	
2. I'm Gonna Walk Dem Golden Stairs 	
3. In My Father's House 	
4. Milky White Way 	
5. Known Only To Him 	
6. I Believe In The Man In The Sky 	
7. Joshua Fit The Battle 	
8. He Knows Just What I Need 	
9. Swing Down Sweet Chariot 	
10. Mansion Over The Hilltop 	
11. If We Never Meet Again 	
12. Working On The Building

EAC-Log, CUE-Sheed & NFO:

Click to open spoiler
Exact Audio Copy V1.1 from 23. June 2015

EAC extraction logfile from 25. March 2016, 11:25

Elvis Presley / His Hand In Mine

Used drive : hp CDDVDW SH-216BB Adapter: 1 ID: 0

Read mode : Secure
Utilize accurate stream : Yes
Defeat audio cache : Yes
Make use of C2 pointers : No

Read offset correction : 6
Overread into Lead-In and Lead-Out : No
Fill up missing offset samples with silence : Yes
Delete leading and trailing silent blocks : No
Null samples used in CRC calculations : Yes
Used interface : Native Win32 interface for Win NT & 2000

Used output format : Internal WAV Routines
Sample format : 44.100 Hz; 16 Bit; Stereo

TOC of the extracted CD

Track | Start | Length | Start sector | End sector
———————————————————
1 | 0:00.00 | 3:17.52 | 0 | 14826
2 | 3:17.52 | 1:52.40 | 14827 | 23266
3 | 5:10.17 | 2:05.61 | 23267 | 32702
4 | 7:16.03 | 2:15.39 | 32703 | 42866
5 | 9:31.42 | 2:09.08 | 42867 | 52549
6 | 11:40.50 | 2:13.37 | 52550 | 62561
7 | 13:54.12 | 2:40.36 | 62562 | 74597
8 | 16:34.48 | 2:13.11 | 74598 | 84583
9 | 18:47.59 | 2:33.43 | 84584 | 96101
10 | 21:21.27 | 2:57.43 | 96102 | 109419
11 | 24:18.70 | 1:59.63 | 109420 | 118407
12 | 26:18.58 | 1:51.74 | 118408 | 126806

Range status and errors

Selected range

Filename C:\Users\Arturs\Desktop\Elvis Presley – His Hand In Mine.wav

Peak level 98.6 %
Extraction speed 2.5 X
Range quality 100.0 %
Test CRC C7D57901
Copy CRC C7D57901
Copy OK

No errors occurred

AccurateRip summary

Track 1 not present in database
Track 2 not present in database
Track 3 not present in database
Track 4 not present in database
Track 5 not present in database
Track 6 not present in database
Track 7 not present in database
Track 8 not present in database
Track 9 not present in database
Track 10 not present in database
Track 11 not present in database
Track 12 not present in database

None of the tracks are present in the AccurateRip database

End of status report

—- CUETools DB Plugin V2.1.6

[CTDB TOCID: 3z1Y6qvUTAUBVf8MZTb3.vF8TK0-] found
Submit result: already submitted
Track | CTDB Status
1 | (4/4) Accurately ripped
2 | (4/4) Accurately ripped
3 | (4/4) Accurately ripped
4 | (4/4) Accurately ripped
5 | (4/4) Accurately ripped
6 | (4/4) Accurately ripped
7 | (4/4) Accurately ripped
8 | (4/4) Accurately ripped
9 | (4/4) Accurately ripped
10 | (4/4) Accurately ripped
11 | (4/4) Accurately ripped
12 | (4/4) Accurately ripped

==== Log checksum 64DF153C186B770212984E81DC73C40BFC3B9B0B4941C3A3C124DA5A3BAE169D ====

REM GENRE “Rock & Roll”
REM DISCID 9F069A0C
REM COMMENT “ExactAudioCopy v1.1”
PERFORMER “Elvis Presley”
TITLE “His Hand In Mine”
FILE “Elvis Presley – His Hand In Mine.flac” WAVE
TRACK 01 AUDIO
TITLE “His Hand In Mine”
PERFORMER “Elvis Presley”
INDEX 01 00:00:00
TRACK 02 AUDIO
TITLE “I’m Gonna Walk Dem Golden Stairs”
PERFORMER “Elvis Presley”
INDEX 00 03:16:10
INDEX 01 03:17:52
TRACK 03 AUDIO
TITLE “In My Father’s House”
PERFORMER “Elvis Presley”
INDEX 00 05:09:34
INDEX 01 05:10:17
TRACK 04 AUDIO
TITLE “Milky White Way”
PERFORMER “Elvis Presley”
INDEX 00 07:15:02
INDEX 01 07:16:03
TRACK 05 AUDIO
TITLE “Known Only To Him”
PERFORMER “Elvis Presley”
INDEX 00 09:30:05
INDEX 01 09:31:42
TRACK 06 AUDIO
TITLE “I Believe In The Man In The Sky”
PERFORMER “Elvis Presley”
INDEX 00 11:39:37
INDEX 01 11:40:50
TRACK 07 AUDIO
TITLE “Joshua Fit The Battle”
PERFORMER “Elvis Presley”
INDEX 00 13:52:65
INDEX 01 13:54:12
TRACK 08 AUDIO
TITLE “He Knows Just What I Need”
PERFORMER “Elvis Presley”
INDEX 00 16:33:30
INDEX 01 16:34:48
TRACK 09 AUDIO
TITLE “Swing Down Sweet Chariot”
PERFORMER “Elvis Presley”
INDEX 00 18:45:65
INDEX 01 18:47:59
TRACK 10 AUDIO
TITLE “Mansion Over The Hilltop”
PERFORMER “Elvis Presley”
INDEX 00 21:20:01
INDEX 01 21:21:27
TRACK 11 AUDIO
TITLE “If We Never Meet Again”
PERFORMER “Elvis Presley”
INDEX 00 24:17:32
INDEX 01 24:18:70
TRACK 12 AUDIO
TITLE “Working On The Building”
PERFORMER “Elvis Presley”
INDEX 00 26:16:64
INDEX 01 26:18:58


Leave a Reply

Your email address will not be published. Required fields are marked *

Enter the text from the image below
 

This site uses Akismet to reduce spam. Learn how your comment data is processed.