Elvis Presley – From The Vaults -’70s




No Cover available

Artist: Elvis Presley
Year: 2016
Genre: Rock
Notes: Discogs
Add. Notes:
Watch Songs on: YouTube
Cover incl.: Yes
Encoder: FLAC
Bitrate: ~800 kBit/s (44.1 kHz/16 Bit/s)
Log & Cue incl.: Yes/Yes
Size: 254,5 MB
Password: “slam” (without ” “)


All Downloads/Hosters are compatible

Download 1
KatFile.com
Turbobit.net
Rapidgator.net
FileFactory.com
Download 2
KatFile.com
Turbobit.net
Rapidgator.net
FileFactory.com

Tracklist:

1. A Hundred Years From Now 
2. Faded Love 
3. Ghost Riders In The Sky 
4. Alla En El Rancho Grande 
5. Froggy Went A Courtin' 
6a. Little Sister 
6b. Get Back 
7. Something 
8. Lady Madonna 
9. I Shall Be Released 
10. My Way 
11. I'll Be Home On Christmas Day 
12. Tiger Man 
13. She Thinks I Still Care 
14. I'm So Lonesome I Could Cry 
15. The Twelfth Of Never 
16. You're The Reason I'm Living 
17. Softly As I Leave You 
18. America The Beautiful

EAC-Log, CUE-Sheed & NFO:

Click to open spoiler
Exact Audio Copy V1.1 from 23. June 2015

EAC extraction logfile from 30. April 2016, 14:00

Elvis Presley / From The Vaults – ’70s

Used drive : hp CDDVDW SH-216BB Adapter: 1 ID: 0

Read mode : Secure
Utilize accurate stream : Yes
Defeat audio cache : Yes
Make use of C2 pointers : No

Read offset correction : 6
Overread into Lead-In and Lead-Out : No
Fill up missing offset samples with silence : Yes
Delete leading and trailing silent blocks : No
Null samples used in CRC calculations : Yes
Used interface : Native Win32 interface for Win NT & 2000

Used output format : Internal WAV Routines
Sample format : 44.100 Hz; 16 Bit; Stereo

TOC of the extracted CD

Track | Start | Length | Start sector | End sector
———————————————————
1 | 0:00.00 | 1:43.14 | 0 | 7738
2 | 1:43.14 | 0:43.61 | 7739 | 11024
3 | 2:27.00 | 2:39.50 | 11025 | 22999
4 | 5:06.50 | 2:02.50 | 23000 | 32199
5 | 7:09.25 | 2:40.50 | 32200 | 44249
6 | 9:50.00 | 3:37.16 | 44250 | 60540
7 | 13:27.16 | 3:42.07 | 60541 | 77197
8 | 17:09.23 | 1:19.56 | 77198 | 83178
9 | 18:29.04 | 0:50.41 | 83179 | 86969
10 | 19:19.45 | 4:34.33 | 86970 | 107552
11 | 23:54.03 | 3:46.68 | 107553 | 124570
12 | 27:40.71 | 3:07.43 | 124571 | 138638
13 | 30:48.39 | 3:29.02 | 138639 | 154315
14 | 34:17.41 | 1:48.60 | 154316 | 162475
15 | 36:06.26 | 2:41.62 | 162476 | 174612
16 | 38:48.13 | 2:20.44 | 174613 | 185156
17 | 41:08.57 | 3:02.44 | 185157 | 198850
18 | 44:11.26 | 2:19.54 | 198851 | 209329

Range status and errors

Selected range

Filename C:\Users\Arturs\Desktop\Elvis Presley – From The Vaults – ’70s.wav

Peak level 100.0 %
Extraction speed 6.7 X
Range quality 100.0 %
Test CRC 69E70F34
Copy CRC 69E70F34
Copy OK

No errors occurred

AccurateRip summary

Track 1 accurately ripped (confidence 1) [7B864F00] (AR v2)
Track 2 accurately ripped (confidence 1) [6F20A6E9] (AR v2)
Track 3 accurately ripped (confidence 1) [1AA7A67F] (AR v2)
Track 4 accurately ripped (confidence 1) [4E49EF50] (AR v2)
Track 5 accurately ripped (confidence 1) [E636D771] (AR v2)
Track 6 accurately ripped (confidence 1) [0C7858C5] (AR v2)
Track 7 accurately ripped (confidence 1) [FEC1E7CB] (AR v2)
Track 8 accurately ripped (confidence 1) [6D4B992C] (AR v2)
Track 9 accurately ripped (confidence 1) [76B38637] (AR v2)
Track 10 accurately ripped (confidence 1) [2D321EFF] (AR v2)
Track 11 accurately ripped (confidence 1) [18B718A3] (AR v2)
Track 12 accurately ripped (confidence 1) [EFF82670] (AR v2)
Track 13 accurately ripped (confidence 1) [54A9EBC0] (AR v2)
Track 14 accurately ripped (confidence 1) [48590244] (AR v2)
Track 15 accurately ripped (confidence 1) [19D66D73] (AR v2)
Track 16 accurately ripped (confidence 1) [96A8DC29] (AR v2)
Track 17 accurately ripped (confidence 1) [B28CBC51] (AR v2)
Track 18 accurately ripped (confidence 1) [21F71389] (AR v2)

All tracks accurately ripped

End of status report

—- CUETools DB Plugin V2.1.6

[CTDB TOCID: UP1LNB_Jr49Qoj1b2TGPv3HeIwk-] found
Submit result: UP1LNB_Jr49Qoj1b2TGPv3HeIwk- has been confirmed
Track | CTDB Status
1 | (7/7) Accurately ripped
2 | (7/7) Accurately ripped
3 | (7/7) Accurately ripped
4 | (7/7) Accurately ripped
5 | (7/7) Accurately ripped
6 | (7/7) Accurately ripped
7 | (7/7) Accurately ripped
8 | (7/7) Accurately ripped
9 | (7/7) Accurately ripped
10 | (7/7) Accurately ripped
11 | (7/7) Accurately ripped
12 | (7/7) Accurately ripped
13 | (7/7) Accurately ripped
14 | (7/7) Accurately ripped
15 | (7/7) Accurately ripped
16 | (7/7) Accurately ripped
17 | (7/7) Accurately ripped
18 | (7/7) Accurately ripped

==== Log checksum 14371E4BCD8AFBF16A8975FC33283695BC89897172CA7ECA4802EC98222D1439 ====

REM DATE 2016
REM DISCID CD0AE712
REM COMMENT “ExactAudioCopy v1.1”
PERFORMER “Elvis Presley”
TITLE “From The Vaults – ’70s”
FILE “Elvis Presley – From The Vaults – ’70s.flac” WAVE
TRACK 01 AUDIO
TITLE “A Hundred Years From Now (studio jam)”
PERFORMER “Unknown Artist”
INDEX 01 00:00:00
TRACK 02 AUDIO
TITLE “Faded Love (studio rehearsal)”
PERFORMER “Elvis Presley”
INDEX 00 01:40:67
INDEX 01 01:43:14
TRACK 03 AUDIO
TITLE “Ghost Riders In The Sky (rehearsal jam)”
PERFORMER “Elvis Presley”
INDEX 00 02:24:53
INDEX 01 02:27:00
TRACK 04 AUDIO
TITLE “Alla En El Rancho Grande (rehearsal jam)”
PERFORMER “Elvis Presley”
INDEX 00 05:04:29
INDEX 01 05:06:50
TRACK 05 AUDIO
TITLE “Froggy Went A-Courtin’ / The Cattle Call (rehearsal jam)”
PERFORMER “Elvis Presley”
INDEX 01 07:09:25
TRACK 06 AUDIO
TITLE “Little Sister / Get Back”
PERFORMER “Elvis Presley”
INDEX 00 09:47:53
INDEX 01 09:50:00
TRACK 07 AUDIO
TITLE “Something”
PERFORMER “Elvis Presley”
INDEX 01 13:27:16
TRACK 08 AUDIO
TITLE “Lady Madonna (studio jam)”
PERFORMER “Elvis Presley”
INDEX 00 17:07:02
INDEX 01 17:09:23
TRACK 09 AUDIO
TITLE “I Shall Be Released”
PERFORMER “Elvis Presley”
INDEX 00 18:26:54
INDEX 01 18:29:04
TRACK 10 AUDIO
TITLE “My Way”
PERFORMER “Elvis Presley”
INDEX 00 19:17:24
INDEX 01 19:19:45
TRACK 11 AUDIO
TITLE “I’ll Be Home On Christmas Day (remake)”
PERFORMER “Elvis Presley”
INDEX 00 23:51:57
INDEX 01 23:54:03
TRACK 12 AUDIO
TITLE “Tiger Man (jam) ”
PERFORMER “Elvis Presley”
INDEX 00 27:38:49
INDEX 01 27:40:71
TRACK 13 AUDIO
TITLE “She Thinks I Still Care (alternate version) ”
PERFORMER “Elvis Presley”
INDEX 00 30:46:17
INDEX 01 30:48:39
TRACK 14 AUDIO
TITLE “I’m So Lonesome I Could Cry”
PERFORMER “Elvis Presley”
INDEX 00 34:15:19
INDEX 01 34:17:41
TRACK 15 AUDIO
TITLE “The Twelth Of Never (rehearsal)”
PERFORMER “Elvis Presley”
INDEX 00 36:04:04
INDEX 01 36:06:26
TRACK 16 AUDIO
TITLE “You’re The Reason I’m Living”
PERFORMER “Elvis Presley”
INDEX 00 38:45:66
INDEX 01 38:48:13
TRACK 17 AUDIO
TITLE “Softly, As I Leave You”
PERFORMER “Elvis Presley”
INDEX 00 41:06:35
INDEX 01 41:08:57
TRACK 18 AUDIO
TITLE “America The Beautiful”
PERFORMER “Elvis Presley”
INDEX 00 44:09:04
INDEX 01 44:11:26


Leave a Reply

Your email address will not be published. Required fields are marked *

Enter the text from the image below
 

This site uses Akismet to reduce spam. Learn how your comment data is processed.