Elvis Presley – From Elvis Presley Boulevard, Memphis, Tennessee




No Cover available

Artist: Elvis Presley
Year: 1976/2016
Genre: Rock
Notes: Discogs
Add. Notes:
Watch Songs on: YouTube
Cover incl.: Yes
Encoder: FLAC
Bitrate: ~800 kBit/s (44.1 kHz/16 Bit/s)
Log & Cue incl.: Yes/Yes
Size: 205,3 MB
Password: “slam” (without ” “)


All Downloads/Hosters are compatible

Download 1
KatFile.com
Turbobit.net
FileFactory.com
Rapidgator.net
Download 2
KatFile.com
Turbobit.net
FileFactory.com
Rapidgator.net

Tracklist:

1. Hurt
2. Never Again
3. Blue Eyes Crying In The Rain
4. Danny Boy
5. The Last Farewell
6. For The Heart
7. Bitter They Are, Harder They Fall
8. Solitaire
9. Love Coming Down
10. I'll Never Fall In Love Again

EAC-Log, CUE-Sheed & NFO:

Click to open spoiler
Exact Audio Copy V1.1 from 23. June 2015

EAC extraction logfile from 27. April 2016, 11:38

Elvis Presley / From Elvis Presley Boulevard, Memphis, Tennessee

Used drive : hp CDDVDW SH-216BB Adapter: 1 ID: 0

Read mode : Secure
Utilize accurate stream : Yes
Defeat audio cache : Yes
Make use of C2 pointers : No

Read offset correction : 6
Overread into Lead-In and Lead-Out : No
Fill up missing offset samples with silence : Yes
Delete leading and trailing silent blocks : No
Null samples used in CRC calculations : Yes
Used interface : Native Win32 interface for Win NT & 2000

Used output format : Internal WAV Routines
Sample format : 44.100 Hz; 16 Bit; Stereo

TOC of the extracted CD

Track | Start | Length | Start sector | End sector
———————————————————
1 | 0:00.00 | 2:10.11 | 0 | 9760
2 | 2:10.11 | 2:53.00 | 9761 | 22735
3 | 5:03.11 | 3:44.42 | 22736 | 39577
4 | 8:47.53 | 3:59.51 | 39578 | 57553
5 | 12:47.29 | 4:04.63 | 57554 | 75916
6 | 16:52.17 | 3:24.16 | 75917 | 91232
7 | 20:16.33 | 3:19.16 | 91233 | 106173
8 | 23:35.49 | 4:42.10 | 106174 | 127333
9 | 28:17.59 | 3:08.57 | 127334 | 141490
10 | 31:26.41 | 3:44.51 | 141491 | 158341

Range status and errors

Selected range

Filename C:\Users\Arturs\Desktop\Elvis Presley – From Elvis Presley Boulevard, Memphis, Tennessee.wav

Peak level 99.0 %
Extraction speed 2.5 X
Range quality 99.9 %
Test CRC E8926EB1
Copy CRC E8926EB1
Copy OK

No errors occurred

AccurateRip summary

Track 1 accurately ripped (confidence 1) [5207A4B3] (AR v2)
Track 2 accurately ripped (confidence 1) [E6B58129] (AR v2)
Track 3 accurately ripped (confidence 1) [A33546A2] (AR v2)
Track 4 accurately ripped (confidence 1) [35D3E5D6] (AR v2)
Track 5 accurately ripped (confidence 1) [918D7D36] (AR v2)
Track 6 accurately ripped (confidence 1) [0E81ED00] (AR v2)
Track 7 accurately ripped (confidence 1) [C1D7EDD0] (AR v2)
Track 8 accurately ripped (confidence 1) [A502B1FD] (AR v2)
Track 9 accurately ripped (confidence 1) [05CE5B9C] (AR v2)
Track 10 accurately ripped (confidence 1) [7AF4940E] (AR v2)

All tracks accurately ripped

End of status report

—- CUETools DB Plugin V2.1.6

[CTDB TOCID: Ga1Ux9E0flZ_GFvMh2M6IqYJFY8-] found
Submit result: Ga1Ux9E0flZ_GFvMh2M6IqYJFY8- has been confirmed
Track | CTDB Status
1 | (9/9) Accurately ripped
2 | (9/9) Accurately ripped
3 | (9/9) Accurately ripped
4 | (9/9) Accurately ripped
5 | (9/9) Accurately ripped
6 | (9/9) Accurately ripped
7 | (9/9) Accurately ripped
8 | (9/9) Accurately ripped
9 | (9/9) Accurately ripped
10 | (9/9) Accurately ripped

==== Log checksum 2F6DC9D19BDBDC23BD09960951A1AFB6E62CD593C76851ED010A0DEFD1B42F84 ====

REM DATE 1976
REM DISCID 87083F0A
REM COMMENT “ExactAudioCopy v1.1”
PERFORMER “Elvis Presley”
TITLE “From Elvis Presley Boulevard, Memphis, Tennessee”
FILE “Elvis Presley – From Elvis Presley Boulevard, Memphis, Tennessee.flac” WAVE
TRACK 01 AUDIO
TITLE “Hurt”
PERFORMER “Elvis Presley”
INDEX 01 00:00:00
TRACK 02 AUDIO
TITLE “Never Again”
PERFORMER “Elvis Presley”
INDEX 00 02:07:34
INDEX 01 02:10:11
TRACK 03 AUDIO
TITLE “Blue Eyes Crying in the Rain”
PERFORMER “Elvis Presley”
INDEX 00 05:01:03
INDEX 01 05:03:11
TRACK 04 AUDIO
TITLE “Danny Boy”
PERFORMER “Elvis Presley”
INDEX 00 08:44:65
INDEX 01 08:47:53
TRACK 05 AUDIO
TITLE “The Last Farewell”
PERFORMER “Elvis Presley”
INDEX 00 12:44:04
INDEX 01 12:47:29
TRACK 06 AUDIO
TITLE “For the Heart”
PERFORMER “Elvis Presley”
INDEX 00 16:49:71
INDEX 01 16:52:17
TRACK 07 AUDIO
TITLE “Bitter They Are, Harder They Fall”
PERFORMER “Elvis Presley”
INDEX 00 20:14:66
INDEX 01 20:16:33
TRACK 08 AUDIO
TITLE “Solitaire”
PERFORMER “Elvis Presley”
INDEX 00 23:33:58
INDEX 01 23:35:49
TRACK 09 AUDIO
TITLE “Love Coming ‘down”
PERFORMER “Elvis Presley”
INDEX 00 28:16:04
INDEX 01 28:17:59
TRACK 10 AUDIO
TITLE “I’ll Never Fall in Love Again”
PERFORMER “Elvis Presley”
INDEX 00 31:25:02
INDEX 01 31:26:41


Leave a Reply

Your email address will not be published. Required fields are marked *

Enter the text from the image below
 

This site uses Akismet to reduce spam. Learn how your comment data is processed.