Elvis Presley – Elvis Sings The Wonderful World Of Christmas (Reissue)




[Total: 0    Average: 0/5]

Artist: Elvis Presley
Year: 1971
Genre: Rock
Notes: Discogs
Add. Notes: Reissue
Cover incl.: Yes
Encoder: FLAC
Bitrate: ~800 kBit/s (44.1 kHz/16 Bit/s)
Log & Cue incl.: Yes/Yes
Size: 205,2 MB
Password: “slam” (without ” “)


All Downloads/Hosters are compatible

Download 1
KatFile.com
Turbobit.net
FileFactory.com
Rapidgator.net
Download 2
KatFile.com
Turbobit.net
FileFactory.com
Rapidgator.net
Download 3
KatFile.com
Turbobit.net
FileFactory.com
Rapidgator.net

Tracklist:

1. O Come, All Ye Faithful
2. The First Noel
3. On A Snowy Christmas Night
4. Winter Wonderland
5. The Wonderful World Of Christmas
6. It Won't Seem Like Christmas (Without You)
7. I'll Be Home On Christmas Day
8. If I Get Home On Christmas Day
9. Holly Leaves And Christmas Trees
10. Merry Christmas Baby
11. Silver Bells
12. If Every Day Was Like Christmas

EAC-Log, CUE-Sheed & NFO:

Click to open spoiler
Exact Audio Copy V1.1 from 23. June 2015

EAC extraction logfile from 20. April 2016, 17:49

Elvis Presley / ELVIS Sings The Wonderful World Of Christmas

Used drive : hp CDDVDW SH-216BB Adapter: 1 ID: 0

Read mode : Secure
Utilize accurate stream : Yes
Defeat audio cache : Yes
Make use of C2 pointers : No

Read offset correction : 6
Overread into Lead-In and Lead-Out : No
Fill up missing offset samples with silence : Yes
Delete leading and trailing silent blocks : No
Null samples used in CRC calculations : Yes
Used interface : Native Win32 interface for Win NT & 2000

Used output format : Internal WAV Routines
Sample format : 44.100 Hz; 16 Bit; Stereo

TOC of the extracted CD

Track | Start | Length | Start sector | End sector
———————————————————
1 | 0:00.00 | 2:50.65 | 0 | 12814
2 | 2:50.65 | 2:13.70 | 12815 | 22859
3 | 5:04.60 | 2:51.70 | 22860 | 35754
4 | 7:56.55 | 2:20.49 | 35755 | 46303
5 | 10:17.29 | 2:00.13 | 46304 | 55316
6 | 12:17.42 | 2:44.17 | 55317 | 67633
7 | 15:01.59 | 3:51.32 | 67634 | 84990
8 | 18:53.16 | 2:55.17 | 84991 | 98132
9 | 21:48.33 | 2:15.63 | 98133 | 108320
10 | 24:04.21 | 5:46.46 | 108321 | 134316
11 | 29:50.67 | 2:30.17 | 134317 | 145583
12 | 32:21.09 | 2:52.57 | 145584 | 158540

Range status and errors

Selected range

Filename C:\Users\Arturs\Desktop\Elvis Presley – ELVIS Sings The Wonderful World Of Christmas.wav

Peak level 98.6 %
Extraction speed 2.6 X
Range quality 100.0 %
Test CRC D53F6E1F
Copy CRC D53F6E1F
Copy OK

No errors occurred

AccurateRip summary

Track 1 accurately ripped (confidence 1) [9071E93B] (AR v2)
Track 2 accurately ripped (confidence 1) [E2139D9D] (AR v2)
Track 3 accurately ripped (confidence 1) [AC9BD652] (AR v2)
Track 4 accurately ripped (confidence 1) [99C52AA9] (AR v2)
Track 5 accurately ripped (confidence 1) [3E8B70C7] (AR v2)
Track 6 accurately ripped (confidence 1) [3D99267C] (AR v2)
Track 7 accurately ripped (confidence 1) [89D3C6D9] (AR v2)
Track 8 accurately ripped (confidence 1) [9BF30E0B] (AR v2)
Track 9 accurately ripped (confidence 1) [3BCB77FD] (AR v2)
Track 10 accurately ripped (confidence 1) [64152D24] (AR v2)
Track 11 accurately ripped (confidence 1) [6D669A23] (AR v2)
Track 12 accurately ripped (confidence 1) [E91267D0] (AR v2)

All tracks accurately ripped

End of status report

—- CUETools DB Plugin V2.1.6

[CTDB TOCID: iY8Vp5nrvFWdtOmiXKulgXQXjr8-] found
Submit result: iY8Vp5nrvFWdtOmiXKulgXQXjr8- has been confirmed
Track | CTDB Status
1 | (8/8) Accurately ripped
2 | (8/8) Accurately ripped
3 | (8/8) Accurately ripped
4 | (8/8) Accurately ripped
5 | (8/8) Accurately ripped
6 | (8/8) Accurately ripped
7 | (8/8) Accurately ripped
8 | (8/8) Accurately ripped
9 | (8/8) Accurately ripped
10 | (8/8) Accurately ripped
11 | (8/8) Accurately ripped
12 | (8/8) Accurately ripped

==== Log checksum 121607C9DE5D70CF7CB66901F51CA164B8D2F88AFA19ED2FF982BA1B87E210F1 ====

REM DATE 1971
REM DISCID 9908410C
REM COMMENT “ExactAudioCopy v1.1”
PERFORMER “Elvis Presley”
TITLE “ELVIS Sings The Wonderful World Of Christmas”
FILE “Elvis Presley – ELVIS Sings The Wonderful World Of Christmas.flac” WAVE
TRACK 01 AUDIO
TITLE “O Come, All Ye Faithful”
PERFORMER “Elvis Presley”
INDEX 01 00:00:00
TRACK 02 AUDIO
TITLE “The First Noel”
PERFORMER “Elvis Presley”
INDEX 00 02:48:52
INDEX 01 02:50:65
TRACK 03 AUDIO
TITLE “On A Snowy Christmas Night”
PERFORMER “Elvis Presley”
INDEX 00 05:01:53
INDEX 01 05:04:60
TRACK 04 AUDIO
TITLE “Winter Wonderland”
PERFORMER “Elvis Presley”
INDEX 00 07:54:29
INDEX 01 07:56:55
TRACK 05 AUDIO
TITLE “The Wonderful World Of Christmas”
PERFORMER “Elvis Presley”
INDEX 00 10:15:02
INDEX 01 10:17:29
TRACK 06 AUDIO
TITLE “It Won’t Seem Like Christmas (Without You)”
PERFORMER “Elvis Presley”
INDEX 00 12:15:16
INDEX 01 12:17:42
TRACK 07 AUDIO
TITLE “I’ll Be Home On Christmas Day”
PERFORMER “Elvis Presley”
INDEX 00 14:59:02
INDEX 01 15:01:59
TRACK 08 AUDIO
TITLE “If I Get Home On Christmas Day”
PERFORMER “Elvis Presley”
INDEX 00 18:51:10
INDEX 01 18:53:16
TRACK 09 AUDIO
TITLE “Holly Leaves And Christmas Trees”
PERFORMER “Elvis Presley”
INDEX 00 21:45:50
INDEX 01 21:48:33
TRACK 10 AUDIO
TITLE “Merry Christmas Baby”
PERFORMER “Elvis Presley”
INDEX 00 24:01:36
INDEX 01 24:04:21
TRACK 11 AUDIO
TITLE “Silver Bells”
PERFORMER “Elvis Presley”
INDEX 00 29:49:36
INDEX 01 29:50:67
TRACK 12 AUDIO
TITLE “If Every Day Was Like Christmas”
PERFORMER “Elvis Presley”
INDEX 00 32:18:27
INDEX 01 32:21:09


Spread the Download

Leave a Reply

Your email address will not be published. Required fields are marked *

Enter the text from the image below
 

This site uses Akismet to reduce spam. Learn how your comment data is processed.