Elvis Presley – Almost In Love (Reissue)




Artist: Elvis Presley
Year: 1970/2016
Genre: Rock
Notes: Discogs
Add. Notes: Reissue
Cover incl.: Yes
Encoder: FLAC
Bitrate: ~800 kBit/s (44.1 kHz/16 Bit/s)
Log & Cue incl.: Yes
Size: 194,5 MB
Password: “slam” (without ” “)


All Downloads/Hosters are compatible

Download 1
KatFile.com
Turbobit.net
FileFactory.com
Rapidgator.net
Download 2
KatFile.com
Turbobit.net
FileFactory.com
Rapidgator.net

Tracklist:

1. Almost In Love 	
2. Long Legged Girl (With The Short Dress On) 	
3. Edge Of Reality 	
4. My Little Friend 	
5. A Little Less Conversation 	
6. Rubberneckin' 	
7. Clean Up Your Own Backyard 	
8. U.S. Male 	
9. Charro! 	
10. Stay Away 	
11. Dominic 	
12. Signs Of The Zodiak 	
13. Swing Down Sweet Chariot

EAC-Log, CUE-Sheed & NFO:

Click to open spoiler
Exact Audio Copy V1.1 from 23. June 2015

EAC extraction logfile from 15. April 2016, 19:43

Elvis Presley / Almost In Love

Used drive : hp CDDVDW SH-216BB Adapter: 1 ID: 0

Read mode : Secure
Utilize accurate stream : Yes
Defeat audio cache : Yes
Make use of C2 pointers : No

Read offset correction : 6
Overread into Lead-In and Lead-Out : No
Fill up missing offset samples with silence : Yes
Delete leading and trailing silent blocks : No
Null samples used in CRC calculations : Yes
Used interface : Native Win32 interface for Win NT & 2000

Used output format : Internal WAV Routines
Sample format : 44.100 Hz; 16 Bit; Stereo

TOC of the extracted CD

Track | Start | Length | Start sector | End sector
———————————————————
1 | 0:00.00 | 2:55.28 | 0 | 13152
2 | 2:55.28 | 1:28.48 | 13153 | 19800
3 | 4:24.01 | 3:16.65 | 19801 | 34565
4 | 7:40.66 | 2:51.14 | 34566 | 47404
5 | 10:32.05 | 2:00.53 | 47405 | 56457
6 | 12:32.58 | 2:14.50 | 56458 | 66557
7 | 14:47.33 | 3:10.62 | 66558 | 80869
8 | 17:58.20 | 2:43.38 | 80870 | 93132
9 | 20:41.58 | 2:45.67 | 93133 | 105574
10 | 23:27.50 | 2:23.32 | 105575 | 116331
11 | 25:51.07 | 1:45.13 | 116332 | 124219
12 | 27:36.20 | 2:20.46 | 124220 | 134765
13 | 29:56.66 | 2:16.52 | 134766 | 145017

Range status and errors

Selected range

Filename C:\Users\Arturs\Desktop\Elvis Presley – Almost In Love.wav

Peak level 99.4 %
Extraction speed 2.5 X
Range quality 99.9 %
Test CRC 9C3EE5BE
Copy CRC 9C3EE5BE
Copy OK

No errors occurred

AccurateRip summary

Track 1 accurately ripped (confidence 1) [8FC432B1] (AR v2)
Track 2 accurately ripped (confidence 1) [EB47EF7C] (AR v2)
Track 3 accurately ripped (confidence 1) [A0DF323C] (AR v2)
Track 4 accurately ripped (confidence 1) [2C6E2B59] (AR v2)
Track 5 accurately ripped (confidence 1) [6EE15552] (AR v2)
Track 6 accurately ripped (confidence 1) [326ABEDF] (AR v2)
Track 7 accurately ripped (confidence 1) [3DD85625] (AR v2)
Track 8 accurately ripped (confidence 1) [7B61AD18] (AR v2)
Track 9 accurately ripped (confidence 1) [EA1BA00D] (AR v2)
Track 10 accurately ripped (confidence 1) [F2CCCD7D] (AR v2)
Track 11 accurately ripped (confidence 1) [A564768A] (AR v2)
Track 12 accurately ripped (confidence 1) [3F565B50] (AR v2)
Track 13 accurately ripped (confidence 1) [7E547D9C] (AR v2)

All tracks accurately ripped

End of status report

—- CUETools DB Plugin V2.1.6

[CTDB TOCID: gGLiAP7zVyHuZzBv3XvCQkCWeNM-] found
Submit result: gGLiAP7zVyHuZzBv3XvCQkCWeNM- has been confirmed
Track | CTDB Status
1 | (8/8) Accurately ripped
2 | (8/8) Accurately ripped
3 | (8/8) Accurately ripped
4 | (8/8) Accurately ripped
5 | (8/8) Accurately ripped
6 | (8/8) Accurately ripped
7 | (8/8) Accurately ripped
8 | (8/8) Accurately ripped
9 | (8/8) Accurately ripped
10 | (8/8) Accurately ripped
11 | (8/8) Accurately ripped
12 | (8/8) Accurately ripped
13 | (8/8) Accurately ripped

==== Log checksum BC0B2C127155B902CDAD613FDED5F6A803295A813882C5F4A817B200113F6BB2 ====

REM DATE 1970
REM DISCID BD078D0D
REM COMMENT “ExactAudioCopy v1.1”
PERFORMER “Elvis Presley”
TITLE “Almost In Love”
FILE “Elvis Presley – Almost In Love.flac” WAVE
TRACK 01 AUDIO
TITLE “Almost In Love”
PERFORMER “Elvis Presley”
INDEX 01 00:00:00
TRACK 02 AUDIO
TITLE “Long Legged Girl (With The Short Dress On)”
PERFORMER “Elvis Presley”
INDEX 00 02:54:72
INDEX 01 02:55:28
TRACK 03 AUDIO
TITLE “Edge Of Reality”
PERFORMER “Elvis Presley”
INDEX 00 04:23:71
INDEX 01 04:24:01
TRACK 04 AUDIO
TITLE “My Little Friend”
PERFORMER “Elvis Presley”
INDEX 00 07:39:70
INDEX 01 07:40:66
TRACK 05 AUDIO
TITLE “A Little Less Conversation”
PERFORMER “Elvis Presley”
INDEX 00 10:31:25
INDEX 01 10:32:05
TRACK 06 AUDIO
TITLE “Rubberneckin’”
PERFORMER “Elvis Presley”
INDEX 00 12:32:23
INDEX 01 12:32:58
TRACK 07 AUDIO
TITLE “Clean Up Your Own Back Yard”
PERFORMER “Elvis Presley”
INDEX 00 14:46:44
INDEX 01 14:47:33
TRACK 08 AUDIO
TITLE “U.S. Male”
PERFORMER “Elvis Presley”
INDEX 00 17:57:36
INDEX 01 17:58:20
TRACK 09 AUDIO
TITLE “Charro”
PERFORMER “Elvis Presley”
INDEX 00 20:40:54
INDEX 01 20:41:58
TRACK 10 AUDIO
TITLE “Stay Away”
PERFORMER “Elvis Presley”
INDEX 00 23:27:26
INDEX 01 23:27:50
TRACK 11 AUDIO
TITLE “Dominic”
PERFORMER “Elvis Presley”
INDEX 00 25:50:31
INDEX 01 25:51:07
TRACK 12 AUDIO
TITLE “Signs Of The Zodiac ”
PERFORMER “Elvis Presley”
INDEX 00 27:34:73
INDEX 01 27:36:20
TRACK 13 AUDIO
TITLE “Swing Down Sweet Chariot”
PERFORMER “Elvis Presley”
INDEX 00 29:55:68
INDEX 01 29:56:66


Leave a Reply

Your email address will not be published. Required fields are marked *

This site uses Akismet to reduce spam. Learn how your comment data is processed.