Eisbrecher – Sünde (Limited Edition)




Artist: Eisbrecher
Year: 2008
Genre: Rock
Notes: Discogs
Add. Notes: Limited Edition
Cover incl.: Yes
Encoder: FLAC
Bitrate: ~900 kBit/s (44.1 kHz/16 Bit/s)
Log & Cue incl.: Yes
Size: 448,9 MB
Password: “slam” (without ” “)


All Downloads/Hosters are compatible

Download 1
Turbobit.net
Rapidgator.net
UploadByte.com
UploadEver.com
JustUpload.io
Download 2
Turbobit.net
Rapidgator.net
UploadByte.com
UploadEver.com
JustUpload.io
Download 3
Turbobit.net
Rapidgator.net
UploadByte.com
UploadEver.com
JustUpload.io

Tracklist:

1 - Kann Denn Liebe Sünde Sein? - 4:51
2 - Alkohol - 4:04
3 - Komm Süsser Tod - 4:37
4 - Heilig - 4:47
5 - Verdammt Sind - 1:41
6 - Die Durch Die Hölle Gehen - 3:54
7 - Herzdieb - 4:27
8 - 1000 Flammen - 4:13
9 - This Is Deutsch - 4:26
10 - Zu Sterben - 5:19
11 - Mehr Licht - 4:30
12 - Kuss - 4:21
13 - Blut Und Tränen - 5:06
14 - This Is Deutsch (SITD-Remix) - 4:43
15 - Alkohol (Roter Sand-Remix) - 5:08
16 - Kann Denn Liebe Sünde Sein (SITD-Remix) - 4:05

EAC-Log, CUE-Sheed & NFO:

Click to open spoiler
Exact Audio Copy V0.99 prebeta 5 from 4. May 2009

Отчёт EAC об извлечении, выполненном 3. августа 2011, 21:48

Eisbrecher / Sunde

Дисковод: _NEC DVD_RW ND-3550A Adapter: 6 ID: 0

Режим чтения : Достоверность
Использование точного потока : Да
Отключение кэша аудио : Да
Использование указателей C2 : Нет

Коррекция смещения при чтении : 48
Способность читать области Lead-in и Lead-out : Нет
Заполнение пропущенных сэмплов тишиной : Да
Удаление блоков с тишиной в начале и конце : Нет
При вычислениях CRC использовались нулевые сэмплы : Да
Интерфейс : Установленный внешний ASPI-интерфейс

Выходной формат : Внутренние WAV-операции
Формат сэмплов : 44.100 Гц; 16 бит; стерео

TOC извлечённого CD

Трек | Старт | Длительность | Начальный сектор | Конечный сектор
———————————————————————
1 | 0:00.00 | 4:51.06 | 0 | 21830
2 | 4:51.06 | 4:04.22 | 21831 | 40152
3 | 8:55.28 | 4:37.13 | 40153 | 60940
4 | 13:32.41 | 4:47.41 | 60941 | 82506
5 | 18:20.07 | 1:42.00 | 82507 | 90156
6 | 20:02.07 | 3:54.65 | 90157 | 107771
7 | 23:56.72 | 4:27.68 | 107772 | 127864
8 | 28:24.65 | 4:13.52 | 127865 | 146891
9 | 32:38.42 | 4:26.21 | 146892 | 166862
10 | 37:04.63 | 5:19.63 | 166863 | 190850
11 | 42:24.51 | 4:31.01 | 190851 | 211176
12 | 46:55.52 | 4:21.44 | 211177 | 230795
13 | 51:17.21 | 5:06.41 | 230796 | 253786
14 | 56:23.62 | 4:43.65 | 253787 | 275076
15 | 61:07.52 | 5:08.45 | 275077 | 298221
16 | 66:16.22 | 4:05.41 | 298222 | 316637

Характеристики диапазона извлечения и сообщения об ошибках

Выбранный диапазон

Имя файла C:\Documents and Settings\Admin\Рабочий стол\Новая папка\Eisbrecher – Sunde.wav

Пиковый уровень 100.0 %
Качество диапазона 99.9 %
CRC теста 9BD48106
CRC копии 9BD48106
Копирование… OK

Ошибок не произошло

AccurateRip: сводка

Трек 1 нет в базе данных
Трек 2 нет в базе данных
Трек 3 нет в базе данных
Трек 4 нет в базе данных
Трек 5 нет в базе данных
Трек 6 нет в базе данных
Трек 7 нет в базе данных
Трек 8 нет в базе данных
Трек 9 нет в базе данных
Трек 10 нет в базе данных
Трек 11 нет в базе данных
Трек 12 нет в базе данных
Трек 13 нет в базе данных
Трек 14 нет в базе данных
Трек 15 нет в базе данных
Трек 16 нет в базе данных

Ни одного трека нет в базе AccurateRip

Конец отчёта

REM GENRE Gothic
REM DATE 2008
REM DISCID ED107D10
REM COMMENT “ExactAudioCopy v0.99pb5”
PERFORMER “Eisbrecher”
TITLE “Sunde”
FILE “Eisbrecher – Sunde (Deluxe Edition).ape” WAVE
TRACK 01 AUDIO
TITLE “Kann Denn Liebe Sunde Sein?”
PERFORMER “Eisbrecher”
INDEX 01 00:00:00
TRACK 02 AUDIO
TITLE “Alkohol”
PERFORMER “Eisbrecher”
INDEX 01 04:51:06
TRACK 03 AUDIO
TITLE “Komm Susser Tod”
PERFORMER “Eisbrecher”
INDEX 01 08:55:28
TRACK 04 AUDIO
TITLE “Heilig”
PERFORMER “Eisbrecher”
INDEX 01 13:32:41
TRACK 05 AUDIO
TITLE “Verdammt Sind”
PERFORMER “Eisbrecher”
INDEX 01 18:20:07
TRACK 06 AUDIO
TITLE “Die Durch Die Holle Gehen”
PERFORMER “Eisbrecher”
INDEX 01 20:02:07
TRACK 07 AUDIO
TITLE “Herzdieb”
PERFORMER “Eisbrecher”
INDEX 01 23:56:72
TRACK 08 AUDIO
TITLE “1000 Flammen”
PERFORMER “Eisbrecher”
INDEX 01 28:24:65
TRACK 09 AUDIO
TITLE “This Is Deutsch”
PERFORMER “Eisbrecher”
INDEX 01 32:38:42
TRACK 10 AUDIO
TITLE “Zu Sterben”
PERFORMER “Eisbrecher”
INDEX 01 37:04:63
TRACK 11 AUDIO
TITLE “Mehr Licht”
PERFORMER “Eisbrecher”
INDEX 01 42:24:51
TRACK 12 AUDIO
TITLE “Kuss”
PERFORMER “Eisbrecher”
INDEX 01 46:55:52
TRACK 13 AUDIO
TITLE “Blut Und Tranen”
PERFORMER “Eisbrecher”
INDEX 01 51:17:21
TRACK 14 AUDIO
TITLE “This Is Deutsch (SITD Remix)”
PERFORMER “Eisbrecher”
INDEX 01 56:23:62
TRACK 15 AUDIO
TITLE “Alkohol (Rotersand Remix)”
PERFORMER “Eisbrecher”
INDEX 01 61:07:52
TRACK 16 AUDIO
TITLE “Kann Denn Liebe Sunde Sein (SITD-Remix)”
PERFORMER “Eisbrecher”
INDEX 01 66:16:22

Leave a Reply

Your email address will not be published. Required fields are marked *

This site uses Akismet to reduce spam. Learn how your comment data is processed.