Eisbrecher – Leider / Vergissmeinnicht (Limited Edition)




Artist: Eisbrecher
Year: 2006
Genre: Metal
Notes: Discogs
Add. Notes: Limited Edition
Cover incl.: Yes
Encoder: FLAC
Bitrate: ~1000 kBit/s (44.1 kHz/16 Bit/s)
Log & Cue incl.: Yes
Size: 403,63 MB
Password: “slam” (without ” “)


All Downloads/Hosters are compatible

Download 1
Turbobit.net
Rapidgator.net
UploadByte.com
UploadEver.com
JustUpload.io
Download 2
Turbobit.net
Rapidgator.net
UploadByte.com
UploadEver.com
JustUpload.io
Download 3
Turbobit.net
Rapidgator.net
UploadByte.com
UploadEver.com
JustUpload.io

Tracklist:

1 - Leider (Radio Cut) - 4:07
2 - Vergissmeinnicht (Radio Mix) - 3:52
3 - Leider (Retrosic Remix) - 4:57
4 - Wie Tief? - 4:22
5 - Vergissmeinnicht (Vergissmeinmix Mix) - 4:29
6 - Leider (Noel Pix Klingenklang Mix) - 4:37
7 - Vergissmeinnicht (Phase Iii Mix) - 5:32
Video1 - Willkommen Im Nichts - 4:34
Video2 - Schwarze Witwe (Making Of) - 3:52

EAC-Log, CUE-Sheed & NFO:

Click to open spoiler
Отчёт EAC об извлечении, выполненном 20. октября 2007, 23:40 для диска:
Eisbrecher / Leider-Vergissmeinnicht MCD

Дисковод: PLEXTOR DVDR PX-716A Adapter: 3 ID: 0
Режим чтения: Достоверный (C2: нет, Точный поток: да, Отключение кэша: да)
Коррекция смещения при чтении: 30
Способность читать области Lead-in и Lead-out : Нет

Выходной формат: Внутренние WAV-операции
44.100 Гц; 16 бит; стерео

Другие параметры:
Заполнение пропущенных сэмплов тишиной : Да
Удаление блоков с тишиной в начале и конце : Нет
Установленный внешний ASPI-интерфейс

Характеристики диапазона извлечения и сообщения об ошибках
Выбранный диапазон
Имя файла F:\DownTemp\7\Eisbrecher – Leider-Vergissmeinnicht MCD.wav

Пиковый уровень 99.8 %
Качество диапазона 100.0 %
CRC B4C745A6
Копирование… OK

Ошибок не произошло

Конец отчёта

REM GENRE Industrial
REM DATE 2006
REM DISCID 6A0BA208
REM COMMENT “ExactAudioCopy v0.95b4”
PERFORMER “Eisbrecher”
TITLE “Leider-Vergissmeinnicht MCD”
FILE “Eisbrecher – Leider-Vergissmeinnicht MCD.ape” APE
TRACK 01 AUDIO
TITLE “Leider (Radio Edit)”
PERFORMER “Eisbrecher”
FLAGS DCP
INDEX 01 00:00:00
TRACK 02 AUDIO
TITLE “Leider (Noel Pix Klingeklang Mix)”
PERFORMER “Eisbrecher”
FLAGS DCP
INDEX 01 04:05:56
TRACK 03 AUDIO
TITLE “Leider (The Retrosic Mix)”
PERFORMER “Eisbrecher”
FLAGS DCP
INDEX 01 08:45:52
TRACK 04 AUDIO
TITLE “Vergissmeinnicht (Radio Mix)”
PERFORMER “Eisbrecher”
FLAGS DCP
INDEX 01 13:42:61
TRACK 05 AUDIO
TITLE “Vergissmeinnicht (Vergissmeinnicht Mix)”
PERFORMER “Eisbrecher”
FLAGS DCP
INDEX 01 17:37:01
TRACK 06 AUDIO
TITLE “Wie Tief?”
PERFORMER “Eisbrecher”
FLAGS DCP
INDEX 01 23:10:13
TRACK 07 AUDIO
TITLE “Vergissmeinnicht (Phase III Mix)”
PERFORMER “Eisbrecher”
FLAGS DCP
INDEX 01 27:33:15

Leave a Reply

Your email address will not be published. Required fields are marked *

This site uses Akismet to reduce spam. Learn how your comment data is processed.