Eisbrecher – Eiszeit (Limited Edition)




Artist: Eisbrecher
Year: 2010
Genre: Rock
Notes: Discogs
Add. Notes: Limited Edition
Cover incl.: Yes
Encoder: FLAC
Bitrate: ~1000 kBit/s (44.1 kHz/16 Bit/s)
Log & Cue incl.: Yes
Size: 372,93 MB
Password: “slam” (without ” “)


All Downloads/Hosters are compatible

Download 1
Turbobit.net
Rapidgator.net
UploadEver.com
JustUpload.io
UsersDrive.com
Download 2
Turbobit.net
Rapidgator.net
UploadEver.com
JustUpload.io
UsersDrive.com
Download 3
Turbobit.net
Rapidgator.net
UploadEver.com
JustUpload.io
UsersDrive.com

Tracklist:

1 - Böse Mädchen - 3:55
2 - Eiszeit - 3:40
3 - Bombe - 3:11
4 - Gothkiller (Eisbrecher Vs. Roberto Vitacca) - 3:50
5 - Die Engel - 3:36
6 - Segne Deinen Schmerz - 4:19
7 - Amok - 3:55
8 - Dein Weg - 3:46
9 - Supermodel - 3:35
10 - Der Hauch Des Leben - 4:09
11 - Kein Wunder - 4:51
12 - Amok (Renegade Of Noise Remix) - 5:42
13 - Schwarze Witwe (TLP-Remix) - 3:52

EAC-Log, CUE-Sheed & NFO:

Click to open spoiler
Exact Audio Copy V0.99 prebeta 5 from 4. May 2009

EAC extraction logfile from 21. April 2010, 9:21

Eisbrecher / Eiszeit

Used drive : SAMSUNG CDRW/DVD SM-352B Adapter: 0 ID: 0

Read mode : Secure
Utilize accurate stream : Yes
Defeat audio cache : Yes
Make use of C2 pointers : No

Read offset correction : 6
Overread into Lead-In and Lead-Out : No
Fill up missing offset samples with silence : Yes
Delete leading and trailing silent blocks : No
Null samples used in CRC calculations : Yes
Used interface : Installed external ASPI interface

Used output format : Monkey’s Audio Lossless Encoder
Selected bitrate : High Lossless Compression
Quality : High
Add ID3 tag : Yes
Command line compressor : C:\Program Files\Monkey’s Audio\MAC.exe

TOC of the extracted CD

Track | Start | Length | Start sector | End sector
———————————————————
1 | 0:00.00 | 3:54.70 | 0 | 17619
2 | 3:54.70 | 3:40.01 | 17620 | 34120
3 | 7:34.71 | 3:11.13 | 34121 | 48458
4 | 10:46.09 | 3:49.62 | 48459 | 65695
5 | 14:35.71 | 3:36.23 | 65696 | 81918
6 | 18:12.19 | 4:18.57 | 81919 | 101325
7 | 22:31.01 | 3:54.47 | 101326 | 118922
8 | 26:25.48 | 3:46.33 | 118923 | 135905
9 | 30:12.06 | 3:35.26 | 135906 | 152056
10 | 33:47.32 | 4:09.18 | 152057 | 170749
11 | 37:56.50 | 4:50.64 | 170750 | 192563
12 | 42:47.39 | 5:42.10 | 192564 | 218223
13 | 48:29.49 | 3:52.16 | 218224 | 235639
14 | 54:53.65 | 11:40.52 | 247040 | 299592

Range status and errors

Selected range

Filename C:\RIP\Eisbrecher – Eiszeit.wav

Peak level 98.9 %
Range quality 100.0 %
Copy CRC D982FAE8
Copy OK

No errors occurred

End of status report

REM GENRE “Industrial”
REM DATE 2010
REM DISCID B09A2E0F
REM COMMENT “ExactAudioCopy v0.99pb5”
PERFORMER “Eisbrecher”
TITLE “Eiszeit”
FILE “Eisbrecher – Eiszeit.ape” WAVE
TRACK 01 AUDIO
TITLE “Bose Madchen”
PERFORMER “Eisbrecher”
INDEX 01 00:00:00
TRACK 02 AUDIO
TITLE “Eiszeit”
PERFORMER “Eisbrecher”
INDEX 01 03:54:70
TRACK 03 AUDIO
TITLE “Bombe”
PERFORMER “Eisbrecher”
INDEX 01 07:34:71
TRACK 04 AUDIO
TITLE “Gothkiller (Eisbrecher vs. Roberto Vitacca)”
PERFORMER “Eisbrecher”
INDEX 01 10:46:09
TRACK 05 AUDIO
TITLE “Die Engel”
PERFORMER “Eisbrecher”
INDEX 01 14:35:71
TRACK 06 AUDIO
TITLE “Segne Deinen Schmerz”
PERFORMER “Eisbrecher”
INDEX 01 18:12:19
TRACK 07 AUDIO
TITLE “Amok”
PERFORMER “Eisbrecher”
INDEX 01 22:31:01
TRACK 08 AUDIO
TITLE “Dein Weg”
PERFORMER “Eisbrecher”
INDEX 01 26:25:48
TRACK 09 AUDIO
TITLE “Supermodel”
PERFORMER “Eisbrecher”
INDEX 01 30:12:06
TRACK 10 AUDIO
TITLE “Der Hauch Des Lebens”
PERFORMER “Eisbrecher”
INDEX 01 33:47:32
TRACK 11 AUDIO
TITLE “Kein Wunder”
PERFORMER “Eisbrecher”
INDEX 01 37:56:50
TRACK 12 AUDIO
TITLE “Amok (Renegade Of Noise Remix)”
PERFORMER “Eisbrecher”
INDEX 01 42:47:39
TRACK 13 AUDIO
TITLE “Schwarze Witwe (TLP Remix)”
PERFORMER “Eisbrecher”
INDEX 01 48:29:49

Leave a Reply

Your email address will not be published. Required fields are marked *

This site uses Akismet to reduce spam. Learn how your comment data is processed.