Eisbrecher – Eiskalt (Limited Edition)




Artist: Eisbrecher
Year: 2011
Genre: Alternative
Notes: Discogs
Add. Notes: Limited Edition
Cover incl.: No
Encoder: FLAC
Bitrate: ~1000 kBit/s (44.1 kHz/16 Bit/s)
Log & Cue incl.: Yes
Size: 863,53 MB
Password: “slam” (without ” “)


All Downloads/Hosters are compatible

Download 1
Turbobit.net
Rapidgator.net
UploadEver.com
JustUpload.io
UsersDrive.com
Download 2
Turbobit.net
Rapidgator.net
UploadEver.com
JustUpload.io
UsersDrive.com
Download 3
Turbobit.net
Rapidgator.net
UploadEver.com
JustUpload.io
UsersDrive.com

Tracklist:

1-1 - Eiszeit - 
1-2 - Vergissmeinnicht - 
1-3 - Herzdieb - 
1-4 - Schwarze Witwe - 
1-5 - Leider - 
1-6 - Böse Mädchen - 
1-7 - Kann Denn Liebe Sünde Sein - 
1-8 - Ohne Dich - 
1-9 - Die Engel - 
1-10 - Heilig - 
1-11 - This Is Deutsch - 
1-12 - Eisbrecher - 
1-13 - Willkommen Im Nichts - 
1-14 - Adrenalin - 
1-15 - Kinder Der Nacht - 
1-16 - Segne Deinen Schmerz - 
2-1 - Amok - 
2-2 - Gothkiller - 
2-3 - Kein Mitleid - 
2-4 - Eiskalt Erwischt - 
2-5 - Vergissmeinnicht (Phase III Remix) - 
2-6 - Segne Deinen Schmerz (SITD Remix) - 
2-7 - Leider (Noel Pix Klingenklang Mix) - 
2-8 - Kann Denn Liebe Sünde Sein (SITD Remix) - 
2-9 - This Is Deutsch (SITD Remix) - 
2-10 - Alkohol (Rotersand Remix) - 
2-11 - Leider (The Retrosic Mix) - 
2-12 - Amok (Renegade Of Noise Remix)

EAC-Log, CUE-Sheed & NFO:

Click to open spoiler
Exact Audio Copy V1.0 beta 1 from 15. November 2010

EAC extraction logfile from 5. June 2011, 13:04

Eisbrecher / Eiskalt [Limited Edition] [AFM 361-9] [Disc 1]

Used drive : PLEXTOR CD-R PREMIUM Adapter: 3 ID: 1

Read mode : Secure
Utilize accurate stream : Yes
Defeat audio cache : Yes
Make use of C2 pointers : No

Read offset correction : 30
Overread into Lead-In and Lead-Out : Yes
Fill up missing offset samples with silence : Yes
Delete leading and trailing silent blocks : No
Null samples used in CRC calculations : Yes
Used interface : Installed external ASPI interface

Used output format : Internal WAV Routines
Sample format : 44.100 Hz; 16 Bit; Stereo

TOC of the extracted CD

Track | Start | Length | Start sector | End sector
———————————————————
1 | 0:00.00 | 3:41.41 | 0 | 16615
2 | 3:41.41 | 3:55.51 | 16616 | 34291
3 | 7:37.17 | 4:29.27 | 34292 | 54493
4 | 12:06.44 | 3:54.21 | 54494 | 72064
5 | 16:00.65 | 4:10.10 | 72065 | 90824
6 | 20:11.00 | 3:56.01 | 90825 | 108525
7 | 24:07.01 | 4:52.14 | 108526 | 130439
8 | 28:59.15 | 4:38.07 | 130440 | 151296
9 | 33:37.22 | 3:37.61 | 151297 | 167632
10 | 37:15.08 | 4:49.01 | 167633 | 189308
11 | 42:04.09 | 4:27.56 | 189309 | 209389
12 | 46:31.65 | 4:06.29 | 209390 | 227868
13 | 50:38.19 | 4:11.17 | 227869 | 246710
14 | 54:49.36 | 4:03.68 | 246711 | 265003
15 | 58:53.29 | 4:19.50 | 265004 | 284478
16 | 63:13.04 | 4:18.58 | 284479 | 303886

Range status and errors

Selected range

Filename F:\~~##AUDIO##~~\Eisbrecher – Eiskalt [Limited Edition] [AFM 361-9] [Disc 1].wav

Peak level 99.8 %
Extraction speed 0.5 X
Range quality 99.9 %
Test CRC 664BE789
Copy CRC 664BE789
Copy OK

No errors occurred

End of status report

==== Log checksum 5B7A8E9A5BB0696189E50D4303AD39233124FF7D95599260914DEE4D97C3292E ====

Exact Audio Copy V1.0 beta 1 from 15. November 2010

EAC extraction logfile from 5. June 2011, 13:23

Eisbrecher / Eiskalt [Limited Edition] [AFM 361-9] [Disc 2]

Used drive : PLEXTOR CD-R PREMIUM Adapter: 0 ID: 1

Read mode : Secure
Utilize accurate stream : Yes
Defeat audio cache : Yes
Make use of C2 pointers : No

Read offset correction : 30
Overread into Lead-In and Lead-Out : Yes
Fill up missing offset samples with silence : Yes
Delete leading and trailing silent blocks : No
Null samples used in CRC calculations : Yes
Used interface : Installed external ASPI interface

Used output format : Internal WAV Routines
Sample format : 44.100 Hz; 16 Bit; Stereo

TOC of the extracted CD

Track | Start | Length | Start sector | End sector
———————————————————
1 | 0:00.00 | 3:56.12 | 0 | 17711
2 | 3:56.12 | 3:51.25 | 17712 | 35061
3 | 7:47.37 | 5:32.13 | 35062 | 59974
4 | 13:19.50 | 3:49.23 | 59975 | 77172
5 | 17:08.73 | 4:31.54 | 77173 | 97551
6 | 21:40.52 | 4:45.28 | 97552 | 118954
7 | 26:26.05 | 4:41.34 | 118955 | 140063
8 | 31:07.39 | 4:05.53 | 140064 | 158491
9 | 35:13.17 | 4:44.27 | 158492 | 179818
10 | 39:57.44 | 5:08.70 | 179819 | 202988
11 | 45:06.39 | 5:00.03 | 202989 | 225491
12 | 50:06.42 | 5:42.11 | 225492 | 251152
13 | 58:20.53 | 18:42.07 | 262553 | 346709

Range status and errors

Selected range

Filename F:\~~##AUDIO##~~\Eisbrecher – Eiskalt [Limited Edition] [AFM 361-9] [Disc 2].wav

Peak level 99.8 %
Extraction speed 2.8 X
Range quality 100.0 %
Test CRC ACA70275
Copy CRC ACA70275
Copy OK

No errors occurred

End of status report

==== Log checksum 2DAD75250014363BA210AD27207A949349F8D9F9F60AF1B738BDD1F273B9D1FE ====

REM GENRE Industrial
REM DATE 2011
REM DISCID DF0FD310
REM COMMENT “ExactAudioCopy v1.0b1”
CATALOG 0884860042529
PERFORMER “Eisbrecher”
TITLE “Eiskalt [Limited Edition] [AFM 361-9] [Disc 1]”
FILE “Eisbrecher – Eiskalt [Limited Edition] [AFM 361-9] [Disc 1].ape” WAVE
TRACK 01 AUDIO
TITLE “Eiszeit”
PERFORMER “Eisbrecher”
ISRC DEU601002900
INDEX 01 00:00:00
TRACK 02 AUDIO
TITLE “Vergissmeinnicht”
PERFORMER “Eisbrecher”
ISRC DEU600600600
INDEX 00 03:40:04
INDEX 01 03:41:41
TRACK 03 AUDIO
TITLE “Herzdieb”
PERFORMER “Eisbrecher”
ISRC DEU600802270
INDEX 00 07:35:55
INDEX 01 07:37:17
TRACK 04 AUDIO
TITLE “Schwarze Witwe”
PERFORMER “Eisbrecher”
ISRC DEA310301358
INDEX 00 12:05:07
INDEX 01 12:06:44
TRACK 05 AUDIO
TITLE “Leider”
PERFORMER “Eisbrecher”
ISRC DEU600600593
INDEX 00 15:59:28
INDEX 01 16:00:65
TRACK 06 AUDIO
TITLE “Böse Mädchen”
PERFORMER “Eisbrecher”
ISRC DEU601002899
INDEX 00 20:10:40
INDEX 01 20:11:00
TRACK 07 AUDIO
TITLE “Kann Denn Liebe Sünde Sein”
PERFORMER “Eisbrecher”
ISRC DEU600802264
INDEX 00 24:05:71
INDEX 01 24:07:01
TRACK 08 AUDIO
TITLE “Ohne Dich”
PERFORMER “Eisbrecher”
ISRC DEU600600596
INDEX 00 28:58:05
INDEX 01 28:59:15
TRACK 09 AUDIO
TITLE “Die Engel”
PERFORMER “Eisbrecher”
ISRC DEU601002901
INDEX 00 33:35:61
INDEX 01 33:37:22
TRACK 10 AUDIO
TITLE “Heilig”
PERFORMER “Eisbrecher”
ISRC DEU600802267
INDEX 00 37:13:46
INDEX 01 37:15:08
TRACK 11 AUDIO
TITLE “This Is Deutsch”
PERFORMER “Eisbrecher”
ISRC DEU600802272
INDEX 00 42:02:47
INDEX 01 42:04:09
TRACK 12 AUDIO
TITLE “Eisbrecher”
PERFORMER “Eisbrecher”
ISRC DEA310301363
INDEX 00 46:30:28
INDEX 01 46:31:65
TRACK 13 AUDIO
TITLE “Willkommen Im Nichts”
PERFORMER “Eisbrecher”
ISRC DEA310301357
INDEX 00 50:36:57
INDEX 01 50:38:19
TRACK 14 AUDIO
TITLE “Adrenalin”
PERFORMER “Eisbrecher”
ISRC DEU600600592
INDEX 00 54:47:23
INDEX 01 54:49:36
TRACK 15 AUDIO
TITLE “Kinder Der Nacht”
PERFORMER “Eisbrecher”
ISRC DEU600600599
INDEX 00 58:51:67
INDEX 01 58:53:29
TRACK 16 AUDIO
TITLE “Segne Deinen Schmerz”
PERFORMER “Eisbrecher”
ISRC DEU601002903
INDEX 00 63:11:42
INDEX 01 63:13:04

REM GENRE Industrial
REM DATE 2011
REM DISCID A9120E0D
REM COMMENT “ExactAudioCopy v1.0b1”
CATALOG 0884860042529
PERFORMER “Eisbrecher”
TITLE “Eiskalt [Limited Edition] [AFM 361-9] [Disc 2]”
FILE “Eisbrecher – Eiskalt [Limited Edition] [AFM 361-9] [Disc 2].ape” WAVE
TRACK 01 AUDIO
TITLE “Amok”
PERFORMER “Eisbrecher”
ISRC DEU601002898
INDEX 01 00:00:00
TRACK 02 AUDIO
TITLE “Gothkiller”
PERFORMER “Eisbrecher”
ISRC DEU601002905
INDEX 00 03:54:50
INDEX 01 03:56:12
TRACK 03 AUDIO
TITLE “Kein Mitleid”
PERFORMER “Eisbrecher”
ISRC DEU600600598
INDEX 00 07:46:00
INDEX 01 07:47:37
TRACK 04 AUDIO
TITLE “Eiskalt Erwischt”
PERFORMER “Eisbrecher”
ISRC DEU600600604
INDEX 00 13:18:71
INDEX 01 13:19:50
TRACK 05 AUDIO
TITLE “Vergissmeinnicht [Phase III Remix]”
PERFORMER “Eisbrecher”
ISRC DEU600600574
INDEX 00 17:06:20
INDEX 01 17:08:73
TRACK 06 AUDIO
TITLE “Segne Deinen Schmerz [SITD Remix]”
PERFORMER “Eisbrecher”
ISRC DEU601002909
INDEX 00 21:38:60
INDEX 01 21:40:52
TRACK 07 AUDIO
TITLE “Leider [Noel Pix Klingenklang Mix]”
PERFORMER “Eisbrecher”
ISRC DEU600600527
INDEX 00 26:24:43
INDEX 01 26:26:05
TRACK 08 AUDIO
TITLE “Kann Denn Liebe Sünde Sein [SITD Remix]”
PERFORMER “Eisbrecher”
ISRC DEU600802279
INDEX 00 31:06:02
INDEX 01 31:07:39
TRACK 09 AUDIO
TITLE “This Is Deutsch [SITD Remxi]”
PERFORMER “Eisbrecher”
ISRC DEU600802277
INDEX 00 35:11:01
INDEX 01 35:13:17
TRACK 10 AUDIO
TITLE “Alkohol [Roter Sand Remix]”
PERFORMER “Eisbrecher”
ISRC DEU600802278
INDEX 00 39:57:05
INDEX 01 39:57:44
TRACK 11 AUDIO
TITLE “Leider [The Retrosic Mix]”
PERFORMER “Eisbrecher”
ISRC DEU600600526
INDEX 00 45:06:11
INDEX 01 45:06:39
TRACK 12 AUDIO
TITLE “Amok [Renegade Of Noise Remix]”
PERFORMER “Eisbrecher”
ISRC DEU601002926
INDEX 00 50:03:49
INDEX 01 50:06:42

Leave a Reply

Your email address will not be published. Required fields are marked *

This site uses Akismet to reduce spam. Learn how your comment data is processed.