Eisbrecher – Eisbrecher




Artist: Eisbrecher
Year: 2004
Genre: Alternative
Notes: Discogs
Add. Notes:
Encoder: FLAC
Bitrate: ~1000 kBit/s (44.1 kHz/16 Bit/s)
Bin/Cue incl.: Yes
Size: 425,87 MB
Password: “slam” (without ” “)


http://www.share-online.biz/dl/O1ZQDVRPW45

https://rapidgator.net/file/f60e48f049338ddb6fca1d7e61525f77

https://uploadbyte.com/ucoch35w4xrl

https://uploadever.com/aif9lvd9gw5m

https://justupload.io/k7lylaaklmyn

Tracklist:

1 - Polarstern - 2:32
2 - Herz Steht Still - 3:56
3 - Willkommen Im Nichts - 4:09
4 - Schwarze Witwe - 3:53
5 - Ruhe (Instrumental) - 0:57
6 - Angst? - 4:17
7 - Fanatica - 3:22
8 - Taub-Stumm-Blind - 5:15
9 - Dornentanz - 4:15
10 - Hoffnung (Instrumental) - 2:17
11 - Eisbrecher - 4:05
12 - Frage - 4:21
13 - Zeichen Der Venus - 4:09
14 - Mein Blut - 4:24
15 - Sakrileg 11 - 4:23
16 - Fanatica (Club Mix) - 5:15

EAC-Log, CUE-Sheed & NFO:

Click to open spoiler
Отчёт EAC об извлечении, выполненном 16. июня 2007, 13:20 для диска:
Eisbrecher / Eisbrecher

Дисковод: PLEXTOR DVDR PX-716A Adapter: 3 ID: 0
Режим чтения: Достоверный (C2: нет, Точный поток: да, Отключение кэша: да)
Коррекция смещения при чтении: 30
Способность читать области Lead-in и Lead-out : Нет

Выходной формат: Внутренние WAV-операции
44.100 Гц; 16 бит; стерео

Другие параметры:
Заполнение пропущенных сэмплов тишиной : Да
Удаление блоков с тишиной в начале и конце : Нет
Установленный внешний ASPI-интерфейс

Характеристики диапазона извлечения и сообщения об ошибках
Выбранный диапазон
Имя файла F:\RIP Flac-Ape\Eisbrecher – Eisbrecher (2004).wav

Пиковый уровень 99.0 %
Качество диапазона 100.0 %
CRC A7C6D3A1
Копирование… OK

Ошибок не произошло

Конец отчёта

————————————————————

Отчёт EAC об извлечении, выполненном 16. июня 2007, 13:20 для диска:
Eisbrecher / Eisbrecher

Дисковод: PLEXTOR DVDR PX-716A Adapter: 3 ID: 0
Режим чтения: Достоверный (C2: нет, Точный поток: да, Отключение кэша: да)
Коррекция смещения при чтении: 30
Способность читать области Lead-in и Lead-out : Нет

Выходной формат: Внутренние WAV-операции
44.100 Гц; 16 бит; стерео

Другие параметры:
Заполнение пропущенных сэмплов тишиной : Да
Удаление блоков с тишиной в начале и конце : Нет
Установленный внешний ASPI-интерфейс

Характеристики диапазона извлечения и сообщения об ошибках
Выбранный диапазон
Имя файла F:\RIP Flac-Ape\Eisbrecher – Eisbrecher (2004).wav

Пиковый уровень 99.0 %
Качество диапазона 100.0 %
CRC A7C6D3A1
Копирование… OK

Ошибок не произошло

Конец отчёта

REM GENRE Industrial
REM DATE 2004
REM DISCID E30E6B10
REM COMMENT “ExactAudioCopy v0.95b4”
PERFORMER “Eisbrecher”
TITLE “Eisbrecher”
FILE “Eisbrecher – Eisbrecher (2004).ape” WAVE
TRACK 01 AUDIO
TITLE “Polarstern”
PERFORMER “Eisbrecher”
INDEX 01 00:00:00
TRACK 02 AUDIO
TITLE “Herz steh still”
PERFORMER “Eisbrecher”
INDEX 01 02:32:27
TRACK 03 AUDIO
TITLE “Willkommen im Nichts”
PERFORMER “Eisbrecher”
INDEX 01 06:28:11
TRACK 04 AUDIO
TITLE “Schwarze Witwe”
PERFORMER “Eisbrecher”
INDEX 01 10:37:15
TRACK 05 AUDIO
TITLE “Ruhe (Instr.)”
PERFORMER “Eisbrecher”
INDEX 01 14:29:74
TRACK 06 AUDIO
TITLE “Angst?”
PERFORMER “Eisbrecher”
INDEX 01 15:27:26
TRACK 07 AUDIO
TITLE “Fanatica”
PERFORMER “Eisbrecher”
INDEX 01 19:44:43
TRACK 08 AUDIO
TITLE “Taub-Stumm-Blind”
PERFORMER “Eisbrecher”
INDEX 01 23:07:03
TRACK 09 AUDIO
TITLE “Dornentanz”
PERFORMER “Eisbrecher”
INDEX 01 28:21:50
TRACK 10 AUDIO
TITLE “Hoffnung (Instr.)”
PERFORMER “Eisbrecher”
INDEX 01 32:36:19
TRACK 11 AUDIO
TITLE “Eisbrecher”
PERFORMER “Eisbrecher”
INDEX 01 34:53:34
TRACK 12 AUDIO
TITLE “Frage”
PERFORMER “Eisbrecher”
INDEX 01 38:58:26
TRACK 13 AUDIO
TITLE “Zeichen der Venus”
PERFORMER “Eisbrecher”
INDEX 01 43:19:05
TRACK 14 AUDIO
TITLE “Mein Blut”
PERFORMER “Eisbrecher”
INDEX 01 47:28:33
TRACK 15 AUDIO
TITLE “Sakrileg”
PERFORMER “Eisbrecher”
INDEX 01 51:52:46
TRACK 16 AUDIO
TITLE “Fanatica (Club-Mix)”
PERFORMER “Eisbrecher”
INDEX 01 56:15:52

Leave a Reply

Your email address will not be published. Required fields are marked *

This site uses Akismet to reduce spam. Learn how your comment data is processed.