Eisbrecher – Antikörper (Limited Edition)




[Total: 0    Average: 0/5]

Artist: Eisbrecher
Year: 2006
Genre: Rock
Notes: Discogs
Add. Notes: Limited Edition
Encoder: FLAC
Bitrate: ~1000 kBit/s (44.1 kHz/16 Bit/s)
Bin/Cue incl.: Yes
Size: 517,94 MB
Password: “slam” (without ” “)


http://www.share-online.biz/dl/8BFDMWRP4PKX
http://www.share-online.biz/dl/JT6DMWRP31M9

https://rapidgator.net/file/d50a79901f4d589828692b796f91926e
https://rapidgator.net/file/cd90a6e3fd5e585d359ff39ef499f8ea

https://uploadbyte.com/3p1nx0mit614
https://uploadbyte.com/uoij13memy2b

https://uploadever.com/chzuj1aj6bv6
https://uploadever.com/h8b6sg3m9q5f

https://justupload.io/bmfs3ejld9o7
https://justupload.io/08ov4kwwk5t0

Tracklist:

1 - Der Anfang - 2:34
2 - Adrenalin - 4:02
3 - Leider - 4:09
4 - Antikörper - 4:15
5 - Entlassen - 4:28
6 - Ohne Dich - 4:36
7 - Phosphor - 3:51
8 - Kein Mitleid - 5:31
9 - Kinder Der Nacht - 4:18
10 - Vergissmeinnicht - 3:54
11 - Freisturz - 4:58
12 - Wie Tief - 4:24
13 - Das Ende - 1:49
14 - Eiskalt Erwischt (Bonus Track) - 3:46
Video - Vergissmeinnicht - 4:04

EAC-Log, CUE-Sheed & NFO:

Click to open spoiler
Exact Audio Copy V0.99 prebeta 4 from 23. January 2008

Отчёт EAC об извлечении, выполненном 18. апреля 2010, 20:50

Eisbrecher / Antikorper

Дисковод: _NEC DVD_RW ND-3550A Adapter: 1 ID: 0

Режим чтения : Достоверность
Использование точного потока : Да
Отключение кэша аудио : Да
Использование указателей C2 : Нет

Коррекция смещения при чтении : 48
Способность читать области Lead-in и Lead-out : Нет
Заполнение пропущенных сэмплов тишиной : Да
Удаление блоков с тишиной в начале и конце : Нет
При вычислениях CRC использовались нулевые сэмплы : Да
Интерфейс : Встроенный Win32-интерфейс для Win NT/2000

Выходной формат : Внутренние WAV-операции
Формат сэмплов : 44.100 Гц; 16 бит; стерео

TOC извлечённого CD

Трек | Старт | Длительность | Начальный сектор | Конечный сектор
———————————————————————
1 | 0:00.00 | 2:36.06 | 0 | 11705
2 | 2:36.06 | 4:02.30 | 11706 | 29885
3 | 6:38.36 | 4:09.48 | 29886 | 48608
4 | 10:48.09 | 4:15.31 | 48609 | 67764
5 | 15:03.40 | 4:28.26 | 67765 | 87890
6 | 19:31.66 | 4:36.43 | 87891 | 108633
7 | 24:08.34 | 3:53.44 | 108634 | 126152
8 | 28:02.03 | 5:31.32 | 126153 | 151009
9 | 33:33.35 | 4:18.11 | 151010 | 170370
10 | 37:51.46 | 3:54.12 | 170371 | 187932
11 | 41:45.58 | 4:57.74 | 187933 | 210281
12 | 46:43.57 | 4:24.01 | 210282 | 230082
13 | 51:07.58 | 1:49.15 | 230083 | 238272
14 | 52:56.73 | 3:46.43 | 238273 | 255265

Характеристики диапазона извлечения и сообщения об ошибках

Выбранный диапазон

Имя файла I:\Documents and Settings\Вадим\Рабочий стол\Eisbrecher – Antikorper.wav

Пиковый уровень 100.0 %
Качество диапазона 100.0 %
CRC копии 91588E9C
Копирование… OK

Ошибок не произошло

AccurateRip: сводка

Трек 1 точное извлечение (доверие 2) [0CE73E84]
Трек 2 точное извлечение (доверие 2) [3EB2839A]
Трек 3 точное извлечение (доверие 2) [FA8162BB]
Трек 4 точное извлечение (доверие 2) [C8611153]
Трек 5 точное извлечение (доверие 2) [5B50CBD1]
Трек 6 точное извлечение (доверие 2) [F233CE21]
Трек 7 точное извлечение (доверие 2) [32CDCFA4]
Трек 8 точное извлечение (доверие 2) [14B0E1EF]
Трек 9 точное извлечение (доверие 2) [113EB4B9]
Трек 10 точное извлечение (доверие 2) [203CE0CB]
Трек 11 точное извлечение (доверие 2) [7D09B4BE]
Трек 12 точное извлечение (доверие 2) [66E8BD2B]
Трек 13 точное извлечение (доверие 2) [3B31F543]
Трек 14 точное извлечение (доверие 2) [98F48802]

Все треки извлечены точно

Конец отчёта

REM GENRE Industrial
REM DATE 2006
REM DISCID AE0D4B0E
REM COMMENT “ExactAudioCopy v0.99pb4”
PERFORMER “Eisbrecher”
TITLE “Antikorper”
FILE “Eisbrecher – Antikorper.ape” WAVE
TRACK 01 AUDIO
TITLE “Der Anfang”
PERFORMER “Eisbrecher”
INDEX 01 00:00:00
TRACK 02 AUDIO
TITLE “Adrenalin”
PERFORMER “Eisbrecher”
INDEX 00 02:34:06
INDEX 01 02:36:06
TRACK 03 AUDIO
TITLE “Leider”
PERFORMER “Eisbrecher”
INDEX 00 06:36:36
INDEX 01 06:38:36
TRACK 04 AUDIO
TITLE “Antikorper”
PERFORMER “Eisbrecher”
INDEX 00 10:46:09
INDEX 01 10:48:09
TRACK 05 AUDIO
TITLE “Entlassen”
PERFORMER “Eisbrecher”
INDEX 00 15:01:40
INDEX 01 15:03:40
TRACK 06 AUDIO
TITLE “Ohne dich”
PERFORMER “Eisbrecher”
INDEX 00 19:29:66
INDEX 01 19:31:66
TRACK 07 AUDIO
TITLE “Phosphor”
PERFORMER “Eisbrecher”
INDEX 00 24:06:34
INDEX 01 24:08:34
TRACK 08 AUDIO
TITLE “Kein Mitleid”
PERFORMER “Eisbrecher”
INDEX 00 28:00:03
INDEX 01 28:02:03
TRACK 09 AUDIO
TITLE “Kinder der Nacht”
PERFORMER “Eisbrecher”
INDEX 00 33:31:35
INDEX 01 33:33:35
TRACK 10 AUDIO
TITLE “Vergissmeinnicht”
PERFORMER “Eisbrecher”
INDEX 00 37:49:46
INDEX 01 37:51:46
TRACK 11 AUDIO
TITLE “Freisturz”
PERFORMER “Eisbrecher”
INDEX 00 41:43:58
INDEX 01 41:45:58
TRACK 12 AUDIO
TITLE “Wie tief?”
PERFORMER “Eisbrecher”
INDEX 00 46:41:57
INDEX 01 46:43:57
TRACK 13 AUDIO
TITLE “Das Ende”
PERFORMER “Eisbrecher”
INDEX 00 51:05:58
INDEX 01 51:07:58
TRACK 14 AUDIO
TITLE “Eiskalt erwischt”
PERFORMER “Eisbrecher”
INDEX 00 52:54:73
INDEX 01 52:56:73

Spread the Download

Leave a Reply

Your email address will not be published. Required fields are marked *

Enter the text from the image below
 

This site uses Akismet to reduce spam. Learn how your comment data is processed.