Edellom – Sirens




No Cover available

Artist: Edellom
Year: 2019
Genre: Metal
Notes: Discogs
Add. Notes:
Watch Songs on: YouTube
Cover incl.: Yes
Encoder: FLAC
Bitrate: ~1000 kBit/s (44.1 kHz/16 Bit/s)
Log & Cue incl.: Yes/Yes
Size: 414,3 MB
Password: “slam” (without ” “)


All Downloads/Hosters are compatible

Download 1
KatFile.com
Turbobit.net
Rapidgator.net
FileFactory.com
Download 2
KatFile.com
Turbobit.net
Rapidgator.net
FileFactory.com

Tracklist:

01. Presentiment (7:05)
02. Thirst (5:36)
03. Torn (8:21)
04. The Black Sorceress (8:59)
05. Verge (6:43)
06. Serenitatem Ad Mortem (7:50)
07. Death of Annabelle (8:46)
08. To Darkness I Fall (7:22)

EAC-Log, CUE-Sheed & NFO:

Click to open spoiler
CUE Corrector v. 7.6.3 / b. 598 (May 12, 2016)
————————————————————————————————————————————————————————————————————————
Edellom / Sirens

Folder: Edellom – Sirens 2019
Audio files:
01 – Presentiment.flac [07:04.62; FLAC • 1054 kbps • 16 bit \ 44100 Hz • stereo; 53,38 MB (55 970 825 bytes)]
02 – Thirst.flac [05:35.64; FLAC • 1075 kbps • 16 bit \ 44100 Hz • stereo; 43,08 MB (45 167 498 bytes)]
03 – Torn.flac [08:20.51; FLAC • 1077 kbps • 16 bit \ 44100 Hz • stereo; 64,33 MB (67 458 391 bytes)]
04 – The Black Sorceress.flac [08:58.70; FLAC • 1059 kbps • 16 bit \ 44100 Hz • stereo; 68,09 MB (71 393 844 bytes)]
05 – Verge.flac [06:43.08; FLAC • 1035 kbps • 16 bit \ 44100 Hz • stereo; 49,77 MB (52 185 621 bytes)]
06 – Serenitatem Ad Mortem.flac [07:49.39; FLAC • 1085 kbps • 16 bit \ 44100 Hz • stereo; 60,76 MB (63 716 040 bytes)]
07 – Death of Annabelle.flac [08:46.30; FLAC • 1029 kbps • 16 bit \ 44100 Hz • stereo; 64,62 MB (67 754 185 bytes)]
08 – To Darkness I Fall.flac [07:21.38; FLAC • 1020 kbps • 16 bit \ 44100 Hz • stereo; 53,69 MB (56 299 297 bytes)]

Accuracy: -m0

File 01 – Presentiment – 100% CDDA [07:04.62]
File 02 – Thirst – 100% CDDA [05:35.64]
File 03 – Torn – 100% CDDA [08:20.51]
File 04 – The Black Sorceress – 95% MPEG [08:58.70]
File 05 – Verge – 95% MPEG [06:43.08]
File 06 – Serenitatem Ad Mortem – 99% CDDA [07:49.39]
File 07 – Death of Annabelle – 95% MPEG [08:46.30]
File 08 – To Darkness I Fall – 99% CDDA [07:21.38]
————— Summary: —————
These tracks looks like CDDA with probability 100%.
————————————————————————————————————————————————————————————————————————

ANALYZER:
auCDtect: CD records authenticity detector, version 0.8.2
Copyright (c) 2004 Oleg Berngardt. All rights reserved.
Copyright (c) 2004 Alexander Djourik. All rights reserved.

Time elapsed: 2 m 14 s
Log created at November 05, 2019 19:31:19

=== 5608A15D8B37A4D1DCF29AB72D4B0A5E4912F287618637C3FC3C3BE30B4E52F8 ===
foobar2000 1.4 / Замер динамического диапазона (DR) 1.1.1
Дата отчёта: 2019-11-05 19:29:10

——————————————————————————–
Анализ: Edellom / Sirens
——————————————————————————–

DR Пики RMS Продолжительность трека
——————————————————————————–
DR6 -0.20 дБ -7.51 дБ 7:05 01-Presentiment
DR6 0.00 дБ -6.35 дБ 5:36 02-Thirst
DR6 0.00 дБ -6.59 дБ 8:21 03-Torn
DR6 -0.15 дБ -6.56 дБ 8:59 04-The Black Sorceress
DR6 -0.20 дБ -6.61 дБ 6:43 05-Verge
DR6 -0.20 дБ -6.51 дБ 7:50 06-Serenitatem Ad Mortem
DR5 -0.18 дБ -6.25 дБ 8:46 07-Death of Annabelle
DR6 0.00 дБ -6.94 дБ 7:22 08-To Darkness I Fall
——————————————————————————–

Количество треков: 8
Реальные значения DR: DR6

Частота: 44100 Гц
Каналов: 2
Разрядность: 16
Битрейт: 993 кбит/с
Кодек: FLAC
================================================================================


Leave a Reply

Your email address will not be published. Required fields are marked *

Enter the text from the image below
 

This site uses Akismet to reduce spam. Learn how your comment data is processed.