Eagles – Their Greatest Hits 1971-1975




Artist: Eagles
Year: 1976/1990
Genre: Rock
Notes: Discogs
Add. Notes:
Cover incl.: Yes
Encoder: FLAC
Bitrate: ~800 kBit/s (44.1 kHz/16 Bit/s)
Log & Cue incl.: Yes
Size: 309,52 MB
Password: “slam” (without ” “)


All Downloads/Hosters are compatible

Download 1
Turbobit.net
Rapidgator.net
KatFile.com
UploadRar.com
Download 2
Turbobit.net
Rapidgator.net
KatFile.com
UploadRar.com
Download 3
Turbobit.net
Rapidgator.net
KatFile.com
UploadRar.com

Tracklist:

1 - Take It Easy - 3:29
2 - Witchy Woman - 4:10
3 - Lyin' Eyes - 6:21
4 - Already Gone - 4:13
5 - Desperado - 3:33
6 - One Of These Nights - 4:51
7 - Tequila Sunrise - 2:52
8 - Take It To The Limit - 4:48
9 - Peaceful, Easy Feeling - 4:16
10 - Best Of My Love - 4:35

EAC-Log, CUE-Sheed & NFO:

Click to open spoiler
Exact Audio Copy V1.1 from 23. June 2015

EAC extraction logfile from 29. June 2016, 13:07

Eagles / Their Greatest Hits 1971-1975

Used drive : HL-DT-STDVD+-RW GH50N Adapter: 1 ID: 0

Read mode : Secure
Utilize accurate stream : Yes
Defeat audio cache : Yes
Make use of C2 pointers : No

Read offset correction : 667
Overread into Lead-In and Lead-Out : No
Fill up missing offset samples with silence : Yes
Delete leading and trailing silent blocks : No
Null samples used in CRC calculations : Yes
Used interface : Native Win32 interface for Win NT & 2000

Used output format : User Defined Encoder
Selected bitrate : 768 kBit/s
Quality : High
Add ID3 tag : No
Command line compressor : C:\Program Files (x86)\Exact Audio Copy\FLAC\FLAC.EXE
Additional command line options : -V -8 -T “Date=%year%” -T “Genre=%genre%” %source%

TOC of the extracted CD

Track | Start | Length | Start sector | End sector
———————————————————
1 | 0:00.32 | 3:29.53 | 32 | 15759
2 | 3:30.10 | 4:10.27 | 15760 | 34536
3 | 7:40.37 | 6:23.23 | 34537 | 63284
4 | 14:03.60 | 4:12.17 | 63285 | 82201
5 | 18:16.02 | 3:34.03 | 82202 | 98254
6 | 21:50.05 | 4:51.72 | 98255 | 120151
7 | 26:42.02 | 2:52.00 | 120152 | 133051
8 | 29:34.02 | 4:48.10 | 133052 | 154661
9 | 34:22.12 | 4:15.45 | 154662 | 173831
10 | 38:37.57 | 4:32.08 | 173832 | 194239

Range status and errors

Selected range

Filename I:\Eagles Discography\Compilations\1976. Eagles – Their Greatest Hits 1971-1975 (Asylum Rec.(target) 105-2 (253 017), Germany)\Eagles – Their Greatest Hits 1971-1975.wav

Peak level 93.3 %
Extraction speed 2.9 X
Range quality 100.0 %
Test CRC 8FAA785C
Copy CRC 8FAA785C
Copy OK

No errors occurred

AccurateRip summary

Track 1 accurately ripped (confidence 54) [A64A1DCE] (AR v2)
Track 2 accurately ripped (confidence 54) [0CFF28FE] (AR v2)
Track 3 accurately ripped (confidence 54) [AC2B625B] (AR v2)
Track 4 accurately ripped (confidence 54) [F3DE0DF0] (AR v2)
Track 5 accurately ripped (confidence 54) [81A22E88] (AR v2)
Track 6 accurately ripped (confidence 54) [CEA583C5] (AR v2)
Track 7 accurately ripped (confidence 54) [590D11BA] (AR v2)
Track 8 accurately ripped (confidence 54) [69C6F691] (AR v2)
Track 9 accurately ripped (confidence 54) [17D72925] (AR v2)
Track 10 accurately ripped (confidence 53) [5D6E24BC] (AR v2)

All tracks accurately ripped

End of status report

—- CUETools DB Plugin V2.1.6

[CTDB TOCID: _triEk2VRE9o7AzZ7xG_Nt9Rzag-] found
Submit result: _triEk2VRE9o7AzZ7xG_Nt9Rzag- has been confirmed
Track | CTDB Status
1 | (27/27) Accurately ripped
2 | (27/27) Accurately ripped
3 | (27/27) Accurately ripped
4 | (27/27) Accurately ripped
5 | (26/27) Accurately ripped
6 | (27/27) Accurately ripped
7 | (27/27) Accurately ripped
8 | (27/27) Accurately ripped
9 | (27/27) Accurately ripped
10 | (27/27) Accurately ripped

==== Log checksum F2E92F05B367504E30A40E16FAEF93ADEE9DEA134D7A40E7FDB485E986B497C2 ====

REM GENRE Classic\Country\Rock*
REM DATE 1976
REM DISCID 780A1D0A
REM COMMENT “ExactAudioCopy v1.1”
PERFORMER “Eagles”
TITLE “Their Greatest Hits 1971-1975”
FILE “Eagles – Their Greatest Hits 1971-1975.flac” WAVE
TRACK 01 AUDIO
TITLE “Take It Easy”
PERFORMER “Eagles”
INDEX 00 00:00:00
INDEX 01 00:00:32
TRACK 02 AUDIO
TITLE “Witchy Woman”
PERFORMER “Eagles”
INDEX 00 03:29:18
INDEX 01 03:30:10
TRACK 03 AUDIO
TITLE “Lyin’ Eyes”
PERFORMER “Eagles”
INDEX 00 07:39:46
INDEX 01 07:40:37
TRACK 04 AUDIO
TITLE “Already Gone”
PERFORMER “Eagles”
INDEX 00 14:02:03
INDEX 01 14:03:60
TRACK 05 AUDIO
TITLE “Desperado”
PERFORMER “Eagles”
INDEX 00 18:15:11
INDEX 01 18:16:02
TRACK 06 AUDIO
TITLE “One Of These Nights”
PERFORMER “Eagles”
INDEX 00 21:47:18
INDEX 01 21:50:05
TRACK 07 AUDIO
TITLE “Tequila Sunrise”
PERFORMER “Eagles”
INDEX 00 26:41:06
INDEX 01 26:42:02
TRACK 08 AUDIO
TITLE “Take It To The Limit”
PERFORMER “Eagles”
INDEX 00 29:33:08
INDEX 01 29:34:02
TRACK 09 AUDIO
TITLE “Peaceful, Easy Feeling”
PERFORMER “Eagles”
INDEX 01 34:22:12
TRACK 10 AUDIO
TITLE “Best Of My Love”
PERFORMER “Eagles”
INDEX 00 38:36:66
INDEX 01 38:37:57


Leave a Reply

Your email address will not be published. Required fields are marked *

This site uses Akismet to reduce spam. Learn how your comment data is processed.