Eagles – Their Greatest Hits 1971-1975




Artist: Eagles
Year: 1976
Genre: Rock
Notes: Discogs
Add. Notes:
Cover incl.: Yes
Encoder: FLAC
Bitrate: ~800 kBit/s (44.1 kHz/16 Bit/s)
Log & Cue incl.: Yes
Size: 312,9 MB
Password: “slam” (without ” “)


All Downloads/Hosters are compatible

Download 1
Turbobit.net
NitroFlare.com
Rapidgator.net
Download 2
Turbobit.net
NitroFlare.com
Rapidgator.net

Tracklist:

1 - Take It Easy - 3:29
2 - Witchy Woman - 4:10
3 - Lyin' Eyes - 6:21
4 - Already Gone - 4:13
5 - Desperado - 3:33
6 - One Of These Nights - 4:51
7 - Tequila Sunrise - 2:52
8 - Take It To The Limit - 4:48
9 - Peaceful, Easy Feeling - 4:16
10 - Best Of My Love - 4:35

EAC-Log, CUE-Sheed & NFO:

Click to open spoiler
Exact Audio Copy V1.0 beta 3 from 29. August 2011

EAC extraction logfile from 9. February 2014, 10:59

Eagles / Their Greatest Hits 1971-1975

Used drive : SONY BD RW BDX-S600U Adapter: 2 ID: 1

Read mode : Secure
Utilize accurate stream : Yes
Defeat audio cache : Yes
Make use of C2 pointers : No

Read offset correction : 48
Overread into Lead-In and Lead-Out : No
Fill up missing offset samples with silence : Yes
Delete leading and trailing silent blocks : No
Null samples used in CRC calculations : Yes
Used interface : Native Win32 interface for Win NT & 2000

Used output format : User Defined Encoder
Selected bitrate : 128 kBit/s
Quality : High
Add ID3 tag : No
Command line compressor : C:\Program Files (x86)\Exact Audio Copy\Flac\flac.exe
Additional command line options : -V -8 -T “Date=%year%” -T “Genre=%genre%” %source%

TOC of the extracted CD

Track | Start | Length | Start sector | End sector
———————————————————
1 | 0:00.00 | 3:29.30 | 0 | 15704
2 | 3:29.30 | 4:10.27 | 15705 | 34481
3 | 7:39.57 | 6:23.23 | 34482 | 63229
4 | 14:03.05 | 4:12.15 | 63230 | 82144
5 | 18:15.20 | 3:34.02 | 82145 | 98196
6 | 21:49.22 | 4:52.03 | 98197 | 120099
7 | 26:41.25 | 2:52.00 | 120100 | 132999
8 | 29:33.25 | 4:48.07 | 133000 | 154606
9 | 34:21.32 | 4:15.45 | 154607 | 173776
10 | 38:37.02 | 4:32.58 | 173777 | 194234

Range status and errors

Selected range

Filename D:\Eagles Discography\Compilations\1976. Eagles – Their Greatest Hits 1971-1975\1976. Eagles – Their Greatest Hits 1971-1975 (Asylum 105-2,Australia)\Eagles – Their Greatest Hits 1971-1975.wav

Peak level 93.3 %
Extraction speed 6.3 X
Range quality 100.0 %
Test CRC FC9AA14F
Copy CRC FC9AA14F
Copy OK

No errors occurred

AccurateRip summary

Track 1 accurately ripped (confidence 2) [244DC037] (AR v2)
Track 2 accurately ripped (confidence 2) [EEC04E0D] (AR v2)
Track 3 accurately ripped (confidence 2) [BC398698] (AR v2)
Track 4 accurately ripped (confidence 2) [F8C736B6] (AR v2)
Track 5 accurately ripped (confidence 2) [BC6A3915] (AR v2)
Track 6 accurately ripped (confidence 2) [4F5DB38B] (AR v2)
Track 7 accurately ripped (confidence 2) [816689AB] (AR v2)
Track 8 accurately ripped (confidence 2) [E3421EFD] (AR v2)
Track 9 accurately ripped (confidence 2) [80A62FC3] (AR v2)
Track 10 accurately ripped (confidence 2) [C029D249] (AR v2)

All tracks accurately ripped

End of status report

—- CUETools DB Plugin V2.1.3

[CTDB TOCID: mTXsfT7uFnL5ZYBzPRHGfvW1YpE-] found, Submit result: mTXsfT7uFnL5ZYBzPRHGfvW1YpE- has been confirmed
[dd44bb31] (19/24) Accurately ripped
[9dc19a6c] (04/24) Differs in 36 samples @12:02:29,12:52:17,12:52:25,12:52:40
[79734e67] (01/24) No match
You can use CUETools to repair this rip.

==== Log checksum CA441D25A0955927140ABEE67ECC09B1131F3B012C5CE8E9C3C8F3EF6579B408 ====

REM GENRE Rock
REM DATE 1976
REM DISCID 710A1D0A
REM COMMENT “ExactAudioCopy v1.0b3”
CATALOG 2530170000008
PERFORMER “Eagles”
TITLE “Their Greatest Hits 1971-1975”
FILE “Eagles – Their Greatest Hits 1971-1975.flac” WAVE
TRACK 01 AUDIO
TITLE “Take It Easy”
PERFORMER “Eagles”
INDEX 01 00:00:00
TRACK 02 AUDIO
TITLE “Witchy Woman”
PERFORMER “Eagles”
INDEX 00 03:27:67
INDEX 01 03:29:30
TRACK 03 AUDIO
TITLE “Lyin’ Eyes”
PERFORMER “Eagles”
INDEX 00 07:38:12
INDEX 01 07:39:57
TRACK 04 AUDIO
TITLE “Already Gone”
PERFORMER “Eagles”
INDEX 00 14:00:30
INDEX 01 14:03:05
TRACK 05 AUDIO
TITLE “Desperado”
PERFORMER “Eagles”
INDEX 00 18:13:72
INDEX 01 18:15:20
TRACK 06 AUDIO
TITLE “One Of These Nights”
PERFORMER “Eagles”
INDEX 00 21:46:32
INDEX 01 21:49:22
TRACK 07 AUDIO
TITLE “Tequila Sunrise”
PERFORMER “Eagles”
INDEX 00 26:40:30
INDEX 01 26:41:25
TRACK 08 AUDIO
TITLE “Take It To The Limit”
PERFORMER “Eagles”
INDEX 00 29:32:20
INDEX 01 29:33:25
TRACK 09 AUDIO
TITLE “Peaceful, Easy Feeling”
PERFORMER “Eagles”
INDEX 00 34:20:45
INDEX 01 34:21:32
TRACK 10 AUDIO
TITLE “Best Of My Love”
PERFORMER “Eagles”
INDEX 00 38:35:57
INDEX 01 38:37:02


Leave a Reply

Your email address will not be published. Required fields are marked *

This site uses Akismet to reduce spam. Learn how your comment data is processed.