Eagles – The Long Run




Artist: Eagles
Year: 1979/1999
Genre: Rock
Notes: Discogs
Add. Notes:
Cover incl.: Yes
Encoder: FLAC
Bitrate: ~700 kBit/s (44.1 kHz/16 Bit/s)
Log & Cue incl.: Yes
Size: 299,72 MB
Password: “slam” (without ” “)


All Downloads/Hosters are compatible

Download 1
Turbobit.net
NitroFlare.com
KatFile.com
Rapidgator.net
Download 2
Turbobit.net
NitroFlare.com
KatFile.com
Rapidgator.net

Tracklist:

1 - The Long Run - 3:42
2 - I Can't Tell You Why - 4:56
3 - In The City - 3:46
4 - The Disco Strangler - 2:46
5 - King Of Hollywood - 6:28
6 - Heartache Tonight - 4:26
7 - Those Shoes - 4:56
8 - Teenage Jail - 3:44
9 - The Greeks Don't Want No Freaks - 2:20
10 - The Sad Cafe - 5:35

EAC-Log, CUE-Sheed & NFO:

Click to open spoiler
Exact Audio Copy V1.0 beta 3 from 29. August 2011

EAC extraction logfile from 9. April 2014, 23:39

Eagles / The Long Run

Used drive : SONY BD RW BDX-S600U Adapter: 2 ID: 1

Read mode : Secure
Utilize accurate stream : Yes
Defeat audio cache : Yes
Make use of C2 pointers : No

Read offset correction : 48
Overread into Lead-In and Lead-Out : No
Fill up missing offset samples with silence : Yes
Delete leading and trailing silent blocks : No
Null samples used in CRC calculations : Yes
Used interface : Native Win32 interface for Win NT & 2000

Used output format : User Defined Encoder
Selected bitrate : 128 kBit/s
Quality : High
Add ID3 tag : No
Command line compressor : C:\Program Files (x86)\Exact Audio Copy\Flac\flac.exe
Additional command line options : -V -8 -T “Date=%year%” -T “Genre=%genre%” %source%

TOC of the extracted CD

Track | Start | Length | Start sector | End sector
———————————————————
1 | 0:00.32 | 3:44.38 | 32 | 16869
2 | 3:44.70 | 4:55.40 | 16870 | 39034
3 | 8:40.35 | 3:45.35 | 39035 | 55944
4 | 12:25.70 | 2:43.55 | 55945 | 68224
5 | 15:09.50 | 6:27.67 | 68225 | 97316
6 | 21:37.42 | 4:25.03 | 97317 | 117194
7 | 26:02.45 | 4:55.65 | 117195 | 139384
8 | 30:58.35 | 3:44.30 | 139385 | 156214
9 | 34:42.65 | 2:20.42 | 156215 | 166756
10 | 37:03.32 | 5:32.20 | 166757 | 191676

Range status and errors

Selected range

Filename D:\Eagles Discography\Studio\1979. Eagles – The Long Run\1979. Eagles – The Long Run (Asylum (target) 508-2,252 181,Germany)\Eagles – The Long Run.wav

Peak level 72.4 %
Extraction speed 6.3 X
Range quality 100.0 %
Test CRC 61ACC30C
Copy CRC 61ACC30C
Copy OK

No errors occurred

AccurateRip summary

Track 1 accurately ripped (confidence 28) [7AAB18D6] (AR v2)
Track 2 accurately ripped (confidence 29) [C52DAC3E] (AR v2)
Track 3 accurately ripped (confidence 28) [01614D1C] (AR v2)
Track 4 accurately ripped (confidence 28) [F07A4BE4] (AR v2)
Track 5 accurately ripped (confidence 28) [6FA3303B] (AR v2)
Track 6 accurately ripped (confidence 29) [C61577DF] (AR v2)
Track 7 accurately ripped (confidence 29) [6A11ADAA] (AR v2)
Track 8 accurately ripped (confidence 28) [51D02360] (AR v2)
Track 9 accurately ripped (confidence 26) [8712BF25] (AR v2)
Track 10 accurately ripped (confidence 27) [96920872] (AR v2)

All tracks accurately ripped

End of status report

—- CUETools DB Plugin V2.1.4

[CTDB TOCID: YmnuYSyJWDbNI8Ciz.zKreOVaUM-] found
Submit result: YmnuYSyJWDbNI8Ciz.zKreOVaUM- has been confirmed
Track | CTDB Status
1 | (17/18) Accurately ripped
2 | (17/18) Accurately ripped
3 | (17/18) Accurately ripped
4 | (17/18) Accurately ripped
5 | (17/18) Accurately ripped
6 | (18/18) Accurately ripped
7 | (17/18) Accurately ripped
8 | (18/18) Accurately ripped
9 | (18/18) Accurately ripped
10 | (17/18) Accurately ripped

==== Log checksum 9B7420C495F2B528C4D72E540B9E955B3AA7807A6B9BD053F93943F5752FE258 ====

REM GENRE Rock
REM DATE 1979
REM DISCID 7F09FB0A
REM COMMENT “ExactAudioCopy v1.0b3”
CATALOG 0075595218123
PERFORMER “Eagles”
TITLE “The Long Run”
FILE “Eagles – The Long Run.flac” WAVE
TRACK 01 AUDIO
TITLE “The Long Run”
PERFORMER “Eagles”
INDEX 00 00:00:00
INDEX 01 00:00:32
TRACK 02 AUDIO
TITLE “I Can’t Tell You Why”
PERFORMER “Eagles”
INDEX 00 03:42:18
INDEX 01 03:44:70
TRACK 03 AUDIO
TITLE “In The City”
PERFORMER “Eagles”
INDEX 00 08:38:56
INDEX 01 08:40:35
TRACK 04 AUDIO
TITLE “The Disco Strangler”
PERFORMER “Eagles”
INDEX 00 12:23:51
INDEX 01 12:25:70
TRACK 05 AUDIO
TITLE “King of Hollywood”
PERFORMER “Eagles”
INDEX 00 15:09:49
INDEX 01 15:09:50
TRACK 06 AUDIO
TITLE “Heartache Tonight”
PERFORMER “Eagles”
INDEX 00 21:35:01
INDEX 01 21:37:42
TRACK 07 AUDIO
TITLE “Those Shoes”
PERFORMER “Eagles”
INDEX 00 26:00:74
INDEX 01 26:02:45
TRACK 08 AUDIO
TITLE “Teenage Jail”
PERFORMER “Eagles”
INDEX 00 30:55:66
INDEX 01 30:58:35
TRACK 09 AUDIO
TITLE “The Greeks Don’t Want No Freaks”
PERFORMER “Eagles”
INDEX 00 34:42:64
INDEX 01 34:42:65
TRACK 10 AUDIO
TITLE “The Sad Cafe”
PERFORMER “Eagles”
INDEX 00 37:00:23
INDEX 01 37:03:32


Leave a Reply

Your email address will not be published. Required fields are marked *

This site uses Akismet to reduce spam. Learn how your comment data is processed.