Eagles – The Long Run (Remastered)




Artist: Eagles
Year: 1979/2013
Genre: Rock
Notes: Discogs
Add. Notes: Remastered
Cover incl.: Yes
Encoder: FLAC
Bitrate: ~700 kBit/s (44.1 kHz/16 Bit/s)
Log & Cue incl.: Yes
Size: 272,03 MB
Password: “slam” (without ” “)


All Downloads/Hosters are compatible

Download 1
Turbobit.net
Rapidgator.net
UploadEver.com
KatFile.com
UsersDrive.com
Download 2
Turbobit.net
Rapidgator.net
UploadEver.com
KatFile.com
UsersDrive.com
Download 3
Turbobit.net
Rapidgator.net
UploadEver.com
KatFile.com
UsersDrive.com

Tracklist:

1 - The Long Run - 3:44
2 - I Can't Tell You Why - 4:55
3 - In The City - 3:46
4 - Disco Strangler - 2:44
5 - King Of Hollywood - 6:28
6 - Heartache Tonight - 4:25
7 - Those Shoes - 4:56
8 - Teenage Jail - 3:45
9 - The Greeks Don't Want No Freaks - 2:20
10 - The Sad Café - 5:33

EAC-Log, CUE-Sheed & NFO:

Click to open spoiler
Exact Audio Copy V1.0 beta 3 from 29. August 2011

EAC extraction logfile from 13. June 2016, 16:06

Eagles / The Long Run

Used drive : PLEXTOR DVDR PX-L890SA Adapter: 5 ID: 1

Read mode : Secure
Utilize accurate stream : Yes
Defeat audio cache : Yes
Make use of C2 pointers : No

Read offset correction : 6
Overread into Lead-In and Lead-Out : No
Fill up missing offset samples with silence : Yes
Delete leading and trailing silent blocks : No
Null samples used in CRC calculations : Yes
Used interface : Native Win32 interface for Win NT & 2000

Used output format : User Defined Encoder
Selected bitrate : 768 kBit/s
Quality : High
Add ID3 tag : No
Command line compressor : C:\Program Files (x86)\Exact Audio Copy\Flac\flac.exe
Additional command line options : -V -8 -T “Date=%year%” -T “Genre=%genre%” %source%

TOC of the extracted CD

Track | Start | Length | Start sector | End sector
———————————————————
1 | 0:00.00 | 3:44.30 | 0 | 16829
2 | 3:44.30 | 4:55.37 | 16830 | 38991
3 | 8:39.67 | 3:45.48 | 38992 | 55914
4 | 12:25.40 | 2:43.60 | 55915 | 68199
5 | 15:09.25 | 6:27.52 | 68200 | 97276
6 | 21:37.02 | 4:25.03 | 97277 | 117154
7 | 26:02.05 | 4:55.47 | 117155 | 139326
8 | 30:57.52 | 3:44.70 | 139327 | 156196
9 | 34:42.47 | 2:20.15 | 156197 | 166711
10 | 37:02.62 | 5:32.45 | 166712 | 191656

Range status and errors

Selected range

Filename H:\MUSIC\Eagles\1979. Eagles – The Long Run (Warner-Asylum 8122796746-6, EU)\Eagles – The Long Run.wav

Peak level 72.4 %
Extraction speed 7.8 X
Range quality 99.9 %
Test CRC 36EECF55
Copy CRC 36EECF55
Copy OK

No errors occurred

AccurateRip summary

Track 1 accurately ripped (confidence 95) [D133552A] (AR v2)
Track 2 accurately ripped (confidence 95) [873820FD] (AR v2)
Track 3 accurately ripped (confidence 95) [B2890D46] (AR v2)
Track 4 accurately ripped (confidence 95) [D801921A] (AR v2)
Track 5 accurately ripped (confidence 95) [BBEF01A1] (AR v2)
Track 6 accurately ripped (confidence 95) [D7EC3EC1] (AR v2)
Track 7 accurately ripped (confidence 95) [AB8C0BDA] (AR v2)
Track 8 accurately ripped (confidence 95) [BB8D1955] (AR v2)
Track 9 accurately ripped (confidence 95) [1AC64151] (AR v2)
Track 10 accurately ripped (confidence 95) [C65126A7] (AR v2)

All tracks accurately ripped

End of status report

==== Log checksum D3DD78A455273D6DA4428969CB6C8F9BF113BB64B692AF54FB4C1C35D48E593E ====

REM GENRE Rock
REM DATE 1979
REM DISCID 8509FB0A
REM COMMENT “ExactAudioCopy v1.0b3”
PERFORMER “Eagles”
TITLE “The Long Run”
FILE “Eagles – The Long Run.flac” WAVE
TRACK 01 AUDIO
TITLE “The Long Run”
PERFORMER “Eagles”
INDEX 01 00:00:00
TRACK 02 AUDIO
TITLE “I Can’t Tell You Why”
PERFORMER “Eagles”
INDEX 00 03:41:65
INDEX 01 03:44:30
TRACK 03 AUDIO
TITLE “In The City”
PERFORMER “Eagles”
INDEX 00 08:38:32
INDEX 01 08:39:67
TRACK 04 AUDIO
TITLE “The Disco Strangler”
PERFORMER “Eagles”
INDEX 00 12:23:31
INDEX 01 12:25:40
TRACK 05 AUDIO
TITLE “King Of Hollywood”
PERFORMER “Eagles”
INDEX 01 15:09:25
TRACK 06 AUDIO
TITLE “Heartache Tonight”
PERFORMER “Eagles”
INDEX 00 21:34:52
INDEX 01 21:37:02
TRACK 07 AUDIO
TITLE “Those Shoes”
PERFORMER “Eagles”
INDEX 00 26:00:52
INDEX 01 26:02:05
TRACK 08 AUDIO
TITLE “Teenage Jail”
PERFORMER “Eagles”
INDEX 00 30:55:50
INDEX 01 30:57:52
TRACK 09 AUDIO
TITLE “The Greeks Don’t Want No Freaks”
PERFORMER “Eagles”
INDEX 01 34:42:47
TRACK 10 AUDIO
TITLE “The Sad Cafe”
PERFORMER “Eagles”
INDEX 00 37:00:00
INDEX 01 37:02:62


Leave a Reply

Your email address will not be published. Required fields are marked *

This site uses Akismet to reduce spam. Learn how your comment data is processed.