Eagles – The Legend Of Eagles




Artist: Eagles
Year: 1987
Genre: Rock
Notes: Discogs
Add. Notes:
Cover incl.: Yes
Encoder: FLAC
Bitrate: ~800 kBit/s (44.1 kHz/16 Bit/s)
Log & Cue incl.: Yes
Size: 461,57 MB
Password: “slam” (without ” “)


All Downloads/Hosters are compatible

Download 1
Turbobit.net
Rapidgator.net
UploadEver.com
KatFile.com
UsersDrive.com
Download 2
Turbobit.net
Rapidgator.net
UploadEver.com
KatFile.com
UsersDrive.com
Download 3
Turbobit.net
Rapidgator.net
UploadEver.com
KatFile.com
UsersDrive.com

Tracklist:

1 - Take It Easy - 3:29
2 - Peaceful, Easy Feeling - 4:16
3 - Desperado - 3:33
4 - Tequila Sunrise - 2:52
5 - Best Of My Love - 4:35
6 - Lyin' Eyes - 3:58
7 - Take It To The Limit - 4:48
8 - The Long Run - 3:42
9 - One Of These Nights - 4:51
10 - Hotel California - 6:30
11 - New Kid In Town - 5:04
12 - Life In The Fast Lane - 4:46
13 - I Can't Tell You Why - 4:56
14 - Heartache Tonight - 4:26

EAC-Log, CUE-Sheed & NFO:

Click to open spoiler
Exact Audio Copy V1.0 beta 3 from 29. August 2011

EAC extraction logfile from 19. February 2015, 1:29

Eagles / The Legend Of Eagles

Used drive : SONY BD RW BDX-S600U Adapter: 2 ID: 1

Read mode : Secure
Utilize accurate stream : Yes
Defeat audio cache : Yes
Make use of C2 pointers : No

Read offset correction : 48
Overread into Lead-In and Lead-Out : No
Fill up missing offset samples with silence : Yes
Delete leading and trailing silent blocks : No
Null samples used in CRC calculations : Yes
Used interface : Native Win32 interface for Win NT & 2000

Used output format : User Defined Encoder
Selected bitrate : 128 kBit/s
Quality : High
Add ID3 tag : No
Command line compressor : C:\Program Files (x86)\Exact Audio Copy\Flac\flac.exe
Additional command line options : -V -8 -T “Date=%year%” -T “Genre=%genre%” %source%

TOC of the extracted CD

Track | Start | Length | Start sector | End sector
———————————————————
1 | 0:00.00 | 3:30.55 | 0 | 15804
2 | 3:30.55 | 4:16.60 | 15805 | 35064
3 | 7:47.40 | 3:33.27 | 35065 | 51066
4 | 11:20.67 | 2:53.13 | 51067 | 64054
5 | 14:14.05 | 4:34.20 | 64055 | 84624
6 | 18:48.25 | 6:23.45 | 84625 | 113394
7 | 25:11.70 | 4:50.12 | 113395 | 135156
8 | 30:02.07 | 3:42.30 | 135157 | 151836
9 | 33:44.37 | 4:53.18 | 151837 | 173829
10 | 38:37.55 | 6:31.32 | 173830 | 203186
11 | 45:09.12 | 5:06.43 | 203187 | 226179
12 | 50:15.55 | 4:46.52 | 226180 | 247681
13 | 55:02.32 | 4:54.45 | 247682 | 269776
14 | 59:57.02 | 4:23.30 | 269777 | 289531

Range status and errors

Selected range

Filename D:\Eagles Discography\Compilations\1987. Eagles – The Legend Of Eagles\1987. Eagles – The Legend Of Eagles (WEA 24 1238-2,Germany)\Eagles – The Legend Of Eagles.wav

Peak level 93.3 %
Extraction speed 6.9 X
Range quality 100.0 %
Test CRC A4FEAB56
Copy CRC A4FEAB56
Copy OK

No errors occurred

AccurateRip summary

Track 1 accurately ripped (confidence 35) [8BE689B6] (AR v2)
Track 2 accurately ripped (confidence 38) [8A495A97] (AR v2)
Track 3 accurately ripped (confidence 37) [B27C2FA3] (AR v2)
Track 4 accurately ripped (confidence 37) [DDA53AC0] (AR v2)
Track 5 accurately ripped (confidence 37) [15BC9309] (AR v2)
Track 6 accurately ripped (confidence 38) [DDC435FE] (AR v2)
Track 7 accurately ripped (confidence 36) [34DED8DC] (AR v2)
Track 8 accurately ripped (confidence 38) [071D7751] (AR v2)
Track 9 accurately ripped (confidence 37) [5E6EBE28] (AR v2)
Track 10 accurately ripped (confidence 38) [6DB06302] (AR v2)
Track 11 accurately ripped (confidence 36) [B07428D7] (AR v2)
Track 12 accurately ripped (confidence 36) [A0FF494C] (AR v2)
Track 13 accurately ripped (confidence 35) [523811FE] (AR v2)
Track 14 accurately ripped (confidence 36) [5B4DB3F8] (AR v2)

All tracks accurately ripped

End of status report

—- CUETools DB Plugin V2.1.4

[CTDB TOCID: c0hhv6w3pNMxJxG.e91Y8XBC..Y-] found
Submit result: c0hhv6w3pNMxJxG.e91Y8XBC..Y- has been confirmed
Track | CTDB Status
1 | (66/72) Accurately ripped
2 | (68/72) Accurately ripped
3 | (68/72) Accurately ripped
4 | (69/72) Accurately ripped
5 | (70/72) Accurately ripped
6 | (67/72) Accurately ripped
7 | (69/72) Accurately ripped
8 | (68/72) Accurately ripped
9 | (67/72) Accurately ripped
10 | (66/72) Accurately ripped
11 | (65/72) Accurately ripped
12 | (67/72) Accurately ripped
13 | (67/72) Accurately ripped
14 | (67/72) Accurately ripped

==== Log checksum BD459B0F4896DE807F6FC956FBD74E82CAA8D7C62D14CB7ED0A39FC756F15FE0 ====

REM GENRE Rock
REM DATE 1987
REM DISCID AC0F140E
REM COMMENT “ExactAudioCopy v1.0b3”
CATALOG 2412380200006
PERFORMER “Eagles”
TITLE “The Legend Of Eagles”
FILE “Eagles – The Legend Of Eagles.flac” WAVE
TRACK 01 AUDIO
TITLE “Take It Easy”
PERFORMER “Eagels”
INDEX 01 00:00:00
TRACK 02 AUDIO
TITLE “Peaceful, Easy Feeling”
PERFORMER “Eagels”
INDEX 00 03:28:47
INDEX 01 03:30:55
TRACK 03 AUDIO
TITLE “Desperado”
PERFORMER “Eagels”
INDEX 00 07:45:30
INDEX 01 07:47:40
TRACK 04 AUDIO
TITLE “Tequila Sunrise”
PERFORMER “Eagels”
INDEX 00 11:18:57
INDEX 01 11:20:67
TRACK 05 AUDIO
TITLE “Best Of My Love”
PERFORMER “Eagels”
INDEX 00 14:11:72
INDEX 01 14:14:05
TRACK 06 AUDIO
TITLE “Lyin’ Eyes”
PERFORMER “Eagels”
INDEX 00 18:46:15
INDEX 01 18:48:25
TRACK 07 AUDIO
TITLE “Take It To The Limit”
PERFORMER “Eagels”
INDEX 00 25:09:65
INDEX 01 25:11:70
TRACK 08 AUDIO
TITLE “The Long Run”
PERFORMER “Eagels”
INDEX 00 30:00:27
INDEX 01 30:02:07
TRACK 09 AUDIO
TITLE “One Of These Nights”
PERFORMER “Eagels”
INDEX 00 33:42:60
INDEX 01 33:44:37
TRACK 10 AUDIO
TITLE “Hotel California”
PERFORMER “Eagels”
INDEX 00 38:35:42
INDEX 01 38:37:55
TRACK 11 AUDIO
TITLE “New Kid In Town”
PERFORMER “Eagels”
INDEX 00 45:07:40
INDEX 01 45:09:12
TRACK 12 AUDIO
TITLE “Life In The Fast Lane”
PERFORMER “Eagels”
INDEX 00 50:14:00
INDEX 01 50:15:55
TRACK 13 AUDIO
TITLE “I Can’t Tell You Why”
PERFORMER “Eagels”
INDEX 00 55:00:52
INDEX 01 55:02:32
TRACK 14 AUDIO
TITLE “Heartache Tonight”
PERFORMER “Eagels”
INDEX 00 59:55:22
INDEX 01 59:57:02

Leave a Reply

Your email address will not be published. Required fields are marked *

This site uses Akismet to reduce spam. Learn how your comment data is processed.