Eagles – The Best Of Eagles




Artist: Eagles
Year: 1985
Genre: Rock
Notes: Discogs
Add. Notes:
Cover incl.: Yes
Encoder: FLAC
Bitrate: ~800 kBit/s (44.1 kHz/16 Bit/s)
Log & Cue incl.: Yes
Size: 404,46 MB
Password: “slam” (without ” “)


All Downloads/Hosters are compatible

Download 1
Turbobit.net
Rapidgator.net
UploadEver.com
KatFile.com
UsersDrive.com
Download 2
Turbobit.net
Rapidgator.net
UploadEver.com
KatFile.com
UsersDrive.com
Download 3
Turbobit.net
Rapidgator.net
UploadEver.com
KatFile.com
UsersDrive.com

Tracklist:

1 - Take It Easy - 3:29
2 - Peaceful, Easy Feeling - 4:16
3 - Desperado - 3:33
4 - Tequila Sunrise - 2:52
5 - Best Of My Love - 4:35
6 - Lyin' Eyes - 6:24
7 - Take It To The Limit - 4:48
8 - One Of These Nights - 4:51
9 - Hotel California - 6:30
10 - New Kid In Town - 5:04
11 - Life In The Fast Lane - 4:46
12 - Heartache Tonight - 4:26
13 - The Long Run - 3:42

EAC-Log, CUE-Sheed & NFO:

Click to open spoiler
Exact Audio Copy V1.0 beta 3 from 29. August 2011

EAC extraction logfile from 25. December 2014, 1:07

Eagles / The Best Of Eagles

Used drive : SONY BD RW BDX-S600U Adapter: 2 ID: 1

Read mode : Secure
Utilize accurate stream : Yes
Defeat audio cache : Yes
Make use of C2 pointers : No

Read offset correction : 48
Overread into Lead-In and Lead-Out : No
Fill up missing offset samples with silence : Yes
Delete leading and trailing silent blocks : No
Null samples used in CRC calculations : Yes
Used interface : Native Win32 interface for Win NT & 2000

Used output format : User Defined Encoder
Selected bitrate : 128 kBit/s
Quality : High
Add ID3 tag : No
Command line compressor : C:\Program Files (x86)\Exact Audio Copy\Flac\flac.exe
Additional command line options : -V -8 -T “Date=%year%” -T “Genre=%genre%” %source%

TOC of the extracted CD

Track | Start | Length | Start sector | End sector
———————————————————
1 | 0:00.33 | 3:30.02 | 33 | 15784
2 | 3:30.35 | 4:16.60 | 15785 | 35044
3 | 7:47.20 | 3:33.28 | 35045 | 51047
4 | 11:20.48 | 2:53.15 | 51048 | 64037
5 | 14:13.63 | 4:34.20 | 64038 | 84607
6 | 18:48.08 | 6:23.47 | 84608 | 113379
7 | 25:11.55 | 4:50.43 | 113380 | 135172
8 | 30:02.23 | 4:53.15 | 135173 | 157162
9 | 34:55.38 | 6:31.37 | 157163 | 186524
10 | 41:27.00 | 5:04.45 | 186525 | 209369
11 | 46:31.45 | 4:47.05 | 209370 | 230899
12 | 51:18.50 | 4:25.28 | 230900 | 250802
13 | 55:44.03 | 3:40.65 | 250803 | 267367

Range status and errors

Selected range

Filename D:\Eagles Discography\Compilations\1985. Eagles – The Best Of Eagles\1985. Eagles – The Best Of Eagles (Asylum 960 342-2 (target),Germany)\Eagles – The Best Of Eagles.wav

Peak level 93.3 %
Extraction speed 6.7 X
Range quality 100.0 %
Test CRC E4BF3F15
Copy CRC E4BF3F15
Copy OK

No errors occurred

AccurateRip summary

Track 1 accurately ripped (confidence 38) [123D2F03] (AR v2)
Track 2 accurately ripped (confidence 36) [40AD5AB0] (AR v2)
Track 3 accurately ripped (confidence 37) [FE1343B0] (AR v2)
Track 4 accurately ripped (confidence 37) [984BCD81] (AR v2)
Track 5 accurately ripped (confidence 37) [D0B939EB] (AR v2)
Track 6 accurately ripped (confidence 37) [F9FC3F4B] (AR v2)
Track 7 accurately ripped (confidence 38) [96ACAD22] (AR v2)
Track 8 accurately ripped (confidence 38) [BAF75630] (AR v2)
Track 9 accurately ripped (confidence 38) [4474AD85] (AR v2)
Track 10 accurately ripped (confidence 38) [4C8CA4C8] (AR v2)
Track 11 accurately ripped (confidence 38) [3D3377E7] (AR v2)
Track 12 accurately ripped (confidence 38) [E3054E5C] (AR v2)
Track 13 accurately ripped (confidence 36) [EB21E334] (AR v2)

All tracks accurately ripped

End of status report

—- CUETools DB Plugin V2.1.4

[CTDB TOCID: yBjQrku8GUS7fAIBx9M5Pn0ypMo-] found
Submit result: yBjQrku8GUS7fAIBx9M5Pn0ypMo- has been confirmed
Track | CTDB Status
1 | (1/1) Accurately ripped
2 | (1/1) Accurately ripped
3 | (1/1) Accurately ripped
4 | (1/1) Accurately ripped
5 | (1/1) Accurately ripped
6 | (1/1) Accurately ripped
7 | (1/1) Accurately ripped
8 | (1/1) Accurately ripped
9 | (1/1) Accurately ripped
10 | (1/1) Accurately ripped
11 | (1/1) Accurately ripped
12 | (1/1) Accurately ripped
13 | (1/1) Accurately ripped

==== Log checksum 57BFA6A1A4EA49167BE6569D2E6A5C306DEF3EB8592D8B77A3808B6F7D2EA2C0 ====

REM GENRE “Country Rock”
REM DATE 1985
REM DISCID B10DEC0D
REM COMMENT “ExactAudioCopy v1.0b3”
CATALOG 0000000000000
PERFORMER “Eagles”
TITLE “The Best Of Eagles”
FILE “Eagles – The Best Of Eagles.flac” WAVE
TRACK 01 AUDIO
TITLE “Take It Easy”
PERFORMER “Eagles”
INDEX 00 00:00:00
INDEX 01 00:00:33
TRACK 02 AUDIO
TITLE “Peaceful, Easy Feeling”
PERFORMER “Eagles”
INDEX 00 03:28:35
INDEX 01 03:30:35
TRACK 03 AUDIO
TITLE “Desperado”
PERFORMER “Eagles”
INDEX 00 07:45:20
INDEX 01 07:47:20
TRACK 04 AUDIO
TITLE “Tequila Sunrise”
PERFORMER “Eagles”
INDEX 00 11:18:48
INDEX 01 11:20:48
TRACK 05 AUDIO
TITLE “Best Of My Love”
PERFORMER “Eagles”
INDEX 00 14:11:63
INDEX 01 14:13:63
TRACK 06 AUDIO
TITLE “Lyin’ Eyes”
PERFORMER “Eagles”
INDEX 00 18:46:08
INDEX 01 18:48:08
TRACK 07 AUDIO
TITLE “Take It To The Limit”
PERFORMER “Eagles”
INDEX 00 25:09:55
INDEX 01 25:11:55
TRACK 08 AUDIO
TITLE “One Of These Nights”
PERFORMER “Eagles”
INDEX 00 30:00:23
INDEX 01 30:02:23
TRACK 09 AUDIO
TITLE “Hotel California”
PERFORMER “Eagles”
INDEX 00 34:53:38
INDEX 01 34:55:38
TRACK 10 AUDIO
TITLE “New Kid In Town”
PERFORMER “Eagles”
INDEX 00 41:25:35
INDEX 01 41:27:00
TRACK 11 AUDIO
TITLE “Life In The Fast Lane”
PERFORMER “Eagles”
INDEX 01 46:31:45
TRACK 12 AUDIO
TITLE “Heartache Tonight”
PERFORMER “Eagles”
INDEX 00 51:16:50
INDEX 01 51:18:50
TRACK 13 AUDIO
TITLE “The Long Run”
PERFORMER “Eagles”
INDEX 00 55:42:13
INDEX 01 55:44:03

Leave a Reply

Your email address will not be published. Required fields are marked *

Enter the text from the image below
 

This site uses Akismet to reduce spam. Learn how your comment data is processed.