Eagles – The Best Of Eagles




Artist: Eagles
Year: 1985
Genre: Rock
Notes: Discogs
Add. Notes:
Cover incl.: Yes
Encoder: FLAC
Bitrate: ~800 kBit/s (44.1 kHz/16 Bit/s)
Log & Cue incl.: Yes
Size: 404,94 MB
Password: “slam” (without ” “)


All Downloads/Hosters are compatible

Download 1
Turbobit.net
Rapidgator.net
KatFile.com
UsersDrive.com
UploadRar.com
Download 2
Turbobit.net
Rapidgator.net
KatFile.com
UsersDrive.com
UploadRar.com
Download 3
Turbobit.net
Rapidgator.net
KatFile.com
UsersDrive.com
UploadRar.com

Tracklist:

1 - Take It Easy - 3:29
2 - Peaceful, Easy Feeling - 4:16
3 - Desperado - 3:33
4 - Tequila Sunrise - 2:52
5 - Best Of My Love - 4:35
6 - Lyin' Eyes - 3:58
7 - Take It To The Limit - 4:48
8 - One Of These Nights - 4:51
9 - Hotel California - 6:30
10 - New Kid In Town - 5:04
11 - Life In The Fast Lane - 4:46
12 - Heartache Tonight - 4:26
13 - The Long Run - 3:42

EAC-Log, CUE-Sheed & NFO:

Click to open spoiler
Exact Audio Copy V1.0 beta 3 from 29. August 2011

EAC extraction logfile from 1. February 2014, 20:43

The Eagles / The Best Of Eagles

Used drive : Optiarc DVD RW AD-7240S Adapter: 1 ID: 1

Read mode : Secure
Utilize accurate stream : Yes
Defeat audio cache : Yes
Make use of C2 pointers : No

Read offset correction : 48
Overread into Lead-In and Lead-Out : No
Fill up missing offset samples with silence : Yes
Delete leading and trailing silent blocks : No
Null samples used in CRC calculations : Yes
Used interface : Native Win32 interface for Win NT & 2000

Used output format : User Defined Encoder
Selected bitrate : 128 kBit/s
Quality : High
Add ID3 tag : No
Command line compressor : C:\Program Files (x86)\Exact Audio Copy\Flac\flac.exe
Additional command line options : -V -8 -T “Date=%year%” -T “Genre=%genre%” %source%

TOC of the extracted CD

Track | Start | Length | Start sector | End sector
———————————————————
1 | 0:00.32 | 3:30.55 | 32 | 15836
2 | 3:31.12 | 4:16.63 | 15837 | 35099
3 | 7:48.00 | 3:33.27 | 35100 | 51101
4 | 11:21.27 | 2:53.13 | 51102 | 64089
5 | 14:14.40 | 4:34.22 | 64090 | 84661
6 | 18:48.62 | 6:23.48 | 84662 | 113434
7 | 25:12.35 | 4:50.42 | 113435 | 135226
8 | 30:03.02 | 4:53.18 | 135227 | 157219
9 | 34:56.20 | 6:31.32 | 157220 | 186576
10 | 41:27.52 | 5:04.45 | 186577 | 209421
11 | 46:32.22 | 4:47.05 | 209422 | 230951
12 | 51:19.27 | 4:25.30 | 230952 | 250856
13 | 55:44.57 | 3:40.58 | 250857 | 267414

Range status and errors

Selected range

Filename D:\Eagles Discography\Compilations\1985. Eagles – The Best Of Eagles\1985. Eagles – The Best Of Eagles (Asylum 960 342-2,Germany)\The Eagles – The Best Of Eagles.wav

Peak level 93.3 %
Extraction speed 4.1 X
Range quality 100.0 %
Test CRC 34408E4E
Copy CRC 34408E4E
Copy OK

No errors occurred

AccurateRip summary

Track 1 accurately ripped (confidence 58) [8B70FB5B] (AR v2)
Track 2 accurately ripped (confidence 57) [C3223198] (AR v2)
Track 3 accurately ripped (confidence 57) [6B4F8C19] (AR v2)
Track 4 accurately ripped (confidence 58) [8A5F29A8] (AR v2)
Track 5 accurately ripped (confidence 57) [BC23EC52] (AR v2)
Track 6 accurately ripped (confidence 54) [C79801F7] (AR v2)
Track 7 accurately ripped (confidence 56) [0A37CEED] (AR v2)
Track 8 accurately ripped (confidence 56) [D3BF1F48] (AR v2)
Track 9 accurately ripped (confidence 55) [08193123] (AR v2)
Track 10 accurately ripped (confidence 55) [CEC5D4E6] (AR v2)
Track 11 accurately ripped (confidence 54) [F10FBA99] (AR v2)
Track 12 accurately ripped (confidence 55) [15778443] (AR v2)
Track 13 accurately ripped (confidence 55) [8190C97C] (AR v2)

All tracks accurately ripped

End of status report

—- CUETools DB Plugin V2.1.3

[CTDB TOCID: fV9x3t_5pNjszWSc1iqttW5d5VA-] found, Submit result: discs with pregaps not supported in this protocol version
[36fe29ba] (088/198) Differs in 911 samples @25:21:11-25:21:30,25:21:56-25:21:62
[4099e4df] (110/198) Differs in 0 samples @
You can use CUETools to repair this rip.

==== Log checksum E56D448FE14A4835A4EDE75F6FF8631F635C1D27C1D8DDA1BAC11904678F7906 ====

REM GENRE Rock
REM DATE 1985
REM DISCID B10DED0D
REM COMMENT “ExactAudioCopy v1.0b3”
CATALOG 0000000000000
PERFORMER “The Eagles”
TITLE “The Best Of Eagles”
FILE “The Eagles – The Best Of Eagles.flac” WAVE
TRACK 01 AUDIO
TITLE “Take It Easy”
PERFORMER “The Eagles”
INDEX 00 00:00:00
INDEX 01 00:00:32
TRACK 02 AUDIO
TITLE “Peaceful, Easy Feeling”
PERFORMER “The Eagles”
INDEX 00 03:29:05
INDEX 01 03:31:12
TRACK 03 AUDIO
TITLE “Desperado”
PERFORMER “The Eagles”
INDEX 00 07:45:65
INDEX 01 07:48:00
TRACK 04 AUDIO
TITLE “Tequila Sunrise”
PERFORMER “The Eagles”
INDEX 00 11:19:17
INDEX 01 11:21:27
TRACK 05 AUDIO
TITLE “Best Of My Love”
PERFORMER “The Eagles”
INDEX 00 14:12:35
INDEX 01 14:14:40
TRACK 06 AUDIO
TITLE “Lyin’ Eyes”
PERFORMER “The Eagles”
INDEX 00 18:46:52
INDEX 01 18:48:62
TRACK 07 AUDIO
TITLE “Take It To The Limit”
PERFORMER “The Eagles”
INDEX 00 25:10:27
INDEX 01 25:12:35
TRACK 08 AUDIO
TITLE “One Of These Nights”
PERFORMER “The Eagles”
INDEX 00 30:00:67
INDEX 01 30:03:02
TRACK 09 AUDIO
TITLE “Hotel California”
PERFORMER “The Eagles”
INDEX 00 34:54:07
INDEX 01 34:56:20
TRACK 10 AUDIO
TITLE “New Kid In Town”
PERFORMER “The Eagles”
INDEX 00 41:26:05
INDEX 01 41:27:52
TRACK 11 AUDIO
TITLE “Life In The Fast Lane”
PERFORMER “The Eagles”
INDEX 01 46:32:22
TRACK 12 AUDIO
TITLE “Heartache Tonight”
PERFORMER “The Eagles”
INDEX 00 51:17:20
INDEX 01 51:19:27
TRACK 13 AUDIO
TITLE “The Long Run”
PERFORMER “The Eagles”
INDEX 00 55:42:60
INDEX 01 55:44:57


Leave a Reply

Your email address will not be published. Required fields are marked *

This site uses Akismet to reduce spam. Learn how your comment data is processed.