Eagles – One Of These Nights




Artist: Eagles
Year: 1975/1985
Genre: Rock
Notes: Discogs
Add. Notes:
Cover incl.: Yes
Encoder: FLAC
Bitrate: ~900 kBit/s (44.1 kHz/16 Bit/s)
Log & Cue incl.: Yes
Size: 352,79 MB
Password: “slam” (without ” “)


All Downloads/Hosters are compatible

Download 1
Turbobit.net
Rapidgator.net
KatFile.com
UploadRar.com
Download 2
Turbobit.net
Rapidgator.net
KatFile.com
UploadRar.com
Download 3
Turbobit.net
Rapidgator.net
KatFile.com
UploadRar.com

Tracklist:

1 - One Of These Nights - 4:51
2 - Too Many Hands - 4:42
3 - Hollywood Waltz - 4:04
4 - Journey Of The Sorcerer - 6:39
5 - Lyin' Eyes - 6:21
6 - Take It To The Limit - 4:48
7 - Visions - 4:00
8 - After The Thrill Is Gone - 3:58
9 - I Wish You Peace - 3:45

EAC-Log, CUE-Sheed & NFO:

Click to open spoiler
Exact Audio Copy V1.1 from 23. June 2015

Отчёт EAC об извлечении, выполненном 11. июня 2016, 15:52

Eagles / One Of These Nights

Дисковод: SONY CD-RW CRX230ED Adapter: 1 ID: 0

Режим чтения : Достоверность
Использование точного потока : Да
Отключение кэша аудио : Да
Использование указателей C2 : Нет

Коррекция смещения при чтении : 6
Способность читать области Lead-in и Lead-out : Нет
Заполнение пропущенных сэмплов тишиной : Да
Удаление блоков с тишиной в начале и конце : Нет
При вычислениях CRC использовались нулевые сэмплы : Да
Интерфейс : Встроенный Win32-интерфейс для Win NT/2000

Выходной формат : Внутренние WAV-операции
Формат сэмплов : 44.100 Гц; 16 бит; стерео

TOC извлечённого CD

Трек | Старт | Длительность | Начальный сектор | Конечный сектор
———————————————————————
1 | 0:00.32 | 4:51.65 | 32 | 21921
2 | 4:52.22 | 4:40.63 | 21922 | 42984
3 | 9:33.10 | 4:01.40 | 42985 | 61099
4 | 13:34.50 | 6:38.20 | 61100 | 90969
5 | 20:12.70 | 6:21.72 | 90970 | 119616
6 | 26:34.67 | 4:46.63 | 119617 | 141129
7 | 31:21.55 | 3:58.42 | 141130 | 159021
8 | 35:20.22 | 3:56.48 | 159022 | 176769
9 | 39:16.70 | 3:45.65 | 176770 | 193709

Характеристики диапазона извлечения и сообщения об ошибках

Выбранный диапазон

Имя файла F:\MusicCD\Torrent\Eagles – One Of These Nights\Eagles – One Of These Nights.wav

Пиковый уровень 99.8 %
Скорость извлечения 6.5 X
Качество диапазона 99.9 %
CRC теста F8A1D786
CRC копии F8A1D786
Копирование… OK

Ошибок не произошло

AccurateRip: сводка

Трек 1 : извлечено точно (доверие 3) [08FB7DFD] (AR v1)
Трек 2 : извлечено точно (доверие 3) [3B659A66] (AR v1)
Трек 3 : извлечено точно (доверие 3) [9EF453DF] (AR v1)
Трек 4 : извлечено точно (доверие 3) [17A5ECB2] (AR v1)
Трек 5 : извлечено точно (доверие 3) [61432544] (AR v1)
Трек 6 : извлечено точно (доверие 3) [1D19D36A] (AR v1)
Трек 7 : извлечено точно (доверие 3) [261E8F54] (AR v1)
Трек 8 : извлечено точно (доверие 3) [EBC0D65D] (AR v1)
Трек 9 : извлечено точно (доверие 2) [A82007C8] (AR v1)

Все треки извлечены точно

Конец отчёта

—- CUETools DB Plugin V2.1.6

[CTDB TOCID: IUWGGKH3S1t3cCEPY0.p9IdRb6U-] found
Submit result: IUWGGKH3S1t3cCEPY0.p9IdRb6U- has been confirmed
Track | CTDB Status
1 | (53/53) Accurately ripped
2 | (53/53) Accurately ripped
3 | (52/53) Accurately ripped
4 | (53/53) Accurately ripped
5 | (51/53) Accurately ripped
6 | (52/53) Accurately ripped
7 | (52/53) Accurately ripped
8 | (53/53) Accurately ripped
9 | (52/53) Accurately ripped

==== Контрольная сумма отчёта 74D945263A9D52EEDFDAE3AA42FA0D580C664E16745AC009796D4F43B1BD8805 ====

REM GENRE Rock
REM DATE 1975
REM DISCID 7B0A1609
REM COMMENT “ExactAudioCopy v1.1”
PERFORMER “Eagles”
TITLE “One Of These Nights”
FILE “Eagles – One Of These Nights.flac” WAVE
TRACK 01 AUDIO
TITLE “One Of These Nights”
PERFORMER “Eagles”
INDEX 00 00:00:00
INDEX 01 00:00:32
TRACK 02 AUDIO
TITLE “Too Many Hands”
PERFORMER “Eagles”
INDEX 01 04:52:22
TRACK 03 AUDIO
TITLE “Hollywood Waltz”
PERFORMER “Eagles”
INDEX 01 09:33:10
TRACK 04 AUDIO
TITLE “Journey Of The Sorcerer”
PERFORMER “Eagles”
INDEX 01 13:34:50
TRACK 05 AUDIO
TITLE “Lyin’ Eyes”
PERFORMER “Eagles”
INDEX 00 20:11:42
INDEX 01 20:12:70
TRACK 06 AUDIO
TITLE “Take It To The Limit”
PERFORMER “Eagles”
INDEX 01 26:34:67
TRACK 07 AUDIO
TITLE “Visions”
PERFORMER “Eagles”
INDEX 01 31:21:55
TRACK 08 AUDIO
TITLE “After The Thrill Is Gone”
PERFORMER “Eagles”
INDEX 01 35:20:22
TRACK 09 AUDIO
TITLE “I Wish You Peace”
PERFORMER “Eagles”
INDEX 01 39:16:70


Leave a Reply

Your email address will not be published. Required fields are marked *

Enter the text from the image below
 

This site uses Akismet to reduce spam. Learn how your comment data is processed.