Eagles – One Of These Nights (Remastered)




Artist: Eagles
Year: 1975/2013
Genre: Rock
Notes: Discogs
Add. Notes: Remastered
Cover incl.: Yes
Encoder: FLAC
Bitrate: ~900 kBit/s (44.1 kHz/16 Bit/s)
Log & Cue incl.: Yes
Size: 339,53 MB
Password: “slam” (without ” “)


All Downloads/Hosters are compatible

Download 1
NitroFlare.com
KatFile.com
Turbobit.net
Rapidgator.net
UploadRar.com
Download 2
NitroFlare.com
KatFile.com
Turbobit.net
Rapidgator.net
UploadRar.com

Tracklist:

1 - One Of These Nights - 4:51
2 - Too Many Hands - 4:41
3 - Hollywood Waltz - 4:02
4 - Journey Of The Sorcerer - 6:37
5 - Lyin' Eyes - 6:22
6 - Take It To The Limit - 4:48
7 - Visions - 3:58
8 - After The Thrill Is Gone - 3:58
9 - I Wish You Peace - 3:45

EAC-Log, CUE-Sheed & NFO:

Click to open spoiler
Exact Audio Copy V1.0 beta 3 from 29. August 2011

EAC extraction logfile from 13. June 2016, 15:09

Eagles / One Of These Nights

Used drive : PLEXTOR DVDR PX-L890SA Adapter: 5 ID: 1

Read mode : Secure
Utilize accurate stream : Yes
Defeat audio cache : Yes
Make use of C2 pointers : No

Read offset correction : 6
Overread into Lead-In and Lead-Out : No
Fill up missing offset samples with silence : Yes
Delete leading and trailing silent blocks : No
Null samples used in CRC calculations : Yes
Used interface : Native Win32 interface for Win NT & 2000

Used output format : User Defined Encoder
Selected bitrate : 768 kBit/s
Quality : High
Add ID3 tag : No
Command line compressor : C:\Program Files (x86)\Exact Audio Copy\Flac\flac.exe
Additional command line options : -V -8 -T “Date=%year%” -T “Genre=%genre%” %source%

TOC of the extracted CD

Track | Start | Length | Start sector | End sector
———————————————————
1 | 0:00.00 | 4:51.65 | 0 | 21889
2 | 4:51.65 | 4:40.62 | 21890 | 42951
3 | 9:32.52 | 4:01.40 | 42952 | 61066
4 | 13:34.17 | 6:38.20 | 61067 | 90936
5 | 20:12.37 | 6:21.73 | 90937 | 119584
6 | 26:34.35 | 4:46.62 | 119585 | 141096
7 | 31:21.22 | 3:58.43 | 141097 | 158989
8 | 35:19.65 | 3:56.47 | 158990 | 176736
9 | 39:16.37 | 3:45.03 | 176737 | 193614

Range status and errors

Selected range

Filename H:\MUSIC\Eagles\1975. Eagles – One Of These Nights (Warner-Asylum 8122796746-4, EU)\Eagles – One Of These Nights.wav

Peak level 99.8 %
Extraction speed 7.9 X
Range quality 100.0 %
Test CRC 60814248
Copy CRC 60814248
Copy OK

No errors occurred

AccurateRip summary

Track 1 accurately ripped (confidence 152) [1CF941CA] (AR v2)
Track 2 accurately ripped (confidence 151) [757B0221] (AR v2)
Track 3 accurately ripped (confidence 151) [3550709F] (AR v2)
Track 4 accurately ripped (confidence 151) [AEDD9C9D] (AR v2)
Track 5 accurately ripped (confidence 152) [52E3303A] (AR v2)
Track 6 accurately ripped (confidence 152) [B6930A80] (AR v2)
Track 7 accurately ripped (confidence 150) [2E5D7501] (AR v2)
Track 8 accurately ripped (confidence 151) [07008217] (AR v2)
Track 9 accurately ripped (confidence 151) [8120714E] (AR v2)

All tracks accurately ripped

End of status report

==== Log checksum 1D1C6C6D16989725367B831EA4EEDDB0B6F1D82E1B553D500976B6E49B7352E2 ====

REM GENRE Rock
REM DATE 1975
REM DISCID 780A1509
REM COMMENT “ExactAudioCopy v1.0b3”
PERFORMER “Eagles”
TITLE “One Of These Nights”
FILE “Eagles – One Of These Nights.flac” WAVE
TRACK 01 AUDIO
TITLE “One Of These Nights”
PERFORMER “Eagles”
INDEX 01 00:00:00
TRACK 02 AUDIO
TITLE “Too Many Hands”
PERFORMER “Eagles”
INDEX 01 04:51:65
TRACK 03 AUDIO
TITLE “Hollywood Waltz”
PERFORMER “Eagles”
INDEX 01 09:32:52
TRACK 04 AUDIO
TITLE “Journey Of The Sorcerer”
PERFORMER “Eagles”
INDEX 01 13:34:17
TRACK 05 AUDIO
TITLE “Lyin’ Eyes”
PERFORMER “Eagles”
INDEX 00 20:11:10
INDEX 01 20:12:37
TRACK 06 AUDIO
TITLE “Take It To The Limit”
PERFORMER “Eagles”
INDEX 01 26:34:35
TRACK 07 AUDIO
TITLE “Visions”
PERFORMER “Eagles”
INDEX 01 31:21:22
TRACK 08 AUDIO
TITLE “After The Thrill Is Gone”
PERFORMER “Eagles”
INDEX 01 35:19:65
TRACK 09 AUDIO
TITLE “I Wish You Peace”
PERFORMER “Eagles”
INDEX 01 39:16:37


Leave a Reply

Your email address will not be published. Required fields are marked *

This site uses Akismet to reduce spam. Learn how your comment data is processed.