Eagles – One Of These Nights (Japanese Edition)




Artist: Eagles
Year: 1975/1994
Genre: Rock
Notes: Discogs
Add. Notes: Japanese Edition
Cover incl.: Yes
Encoder: FLAC
Bitrate: ~900 kBit/s (44.1 kHz/16 Bit/s)
Log & Cue incl.: Yes
Size: 392,11 MB
Password: “slam” (without ” “)


All Downloads/Hosters are compatible

Download 1
Turbobit.net
Rapidgator.net
UploadEver.com
KatFile.com
UsersDrive.com
Download 2
Turbobit.net
Rapidgator.net
UploadEver.com
KatFile.com
UsersDrive.com
Download 3
Turbobit.net
Rapidgator.net
UploadEver.com
KatFile.com
UsersDrive.com

Tracklist:

1 - One Of These Nights - 4:51
2 - Too Many Hands - 4:42
3 - Hollywood Waltz - 4:04
4 - Journey Of The Sorcerer - 6:39
5 - Lyin' Eyes - 6:21
6 - Take It To The Limit - 4:48
7 - Visions - 4:00
8 - After The Thrill Is Gone - 3:58
9 - I Wish You Peace - 3:45

EAC-Log, CUE-Sheed & NFO:

Click to open spoiler
Exact Audio Copy V1.0 beta 4 from 7. December 2014

EAC extraction logfile from 22. May 2015, 0:24

Eagles / Eagles – One Of These Nights

Used drive : SONY BD RW BDX-S600U Adapter: 1 ID: 2

Read mode : Secure
Utilize accurate stream : Yes
Defeat audio cache : Yes
Make use of C2 pointers : No

Read offset correction : 48
Overread into Lead-In and Lead-Out : No
Fill up missing offset samples with silence : Yes
Delete leading and trailing silent blocks : No
Null samples used in CRC calculations : Yes
Used interface : Native Win32 interface for Win NT & 2000

Used output format : User Defined Encoder
Selected bitrate : 768 kBit/s
Quality : High
Add ID3 tag : No
Command line compressor : C:\Program Files (x86)\Exact Audio Copy\FLAC\FLAC.EXE
Additional command line options : -6 -V -T “ARTIST=%artist%” -T “TITLE=%title%” -T “ALBUM=%albumtitle%” -T “DATE=%year%” -T “TRACKNUMBER=%tracknr%” -T “GENRE=%genre%” -T “COMMENT=%comment%” -T “BAND=%albuminterpret%” -T “ALBUMARTIST=%albuminterpret%” -T “COMPOSER=%composer%” %haslyrics%–tag-from-file=LYRICS=”%lyricsfile%”%haslyrics% -T “DISCNUMBER=%cdnumber%” -T “TOTALDISCS=%totalcds%” -T “TOTALTRACKS=%numtracks%” %hascover%–picture=”%coverfile%”%hascover% %source% -o %dest%

TOC of the extracted CD

Track | Start | Length | Start sector | End sector
———————————————————
1 | 0:00.00 | 4:50.62 | 0 | 21811
2 | 4:50.62 | 4:40.50 | 21812 | 42861
3 | 9:31.37 | 4:01.28 | 42862 | 60964
4 | 13:32.65 | 6:39.00 | 60965 | 90889
5 | 20:11.65 | 6:21.20 | 90890 | 119484
6 | 26:33.10 | 4:47.20 | 119485 | 141029
7 | 31:20.30 | 3:58.35 | 141030 | 158914
8 | 35:18.65 | 3:56.17 | 158915 | 176631
9 | 39:15.07 | 3:44.68 | 176632 | 193499

Range status and errors

Selected range

Filename D:\Eagles Discography\Studio\1975. Eagles – One of These Nights\1975. Eagles – One Of These Nights (Warner Pioneer Corp.,20P2-2015,Japan)\Eagles – Eagles – One Of These Nights.wav

Peak level 91.3 %
Extraction speed 13.7 X
Range quality 99.9 %
Test CRC 8F0C6E49
Copy CRC 8F0C6E49
Copy OK

No errors occurred

AccurateRip summary

Track 1 accurately ripped (confidence 6) [9162AA38] (AR v2)
Track 2 accurately ripped (confidence 7) [4CFC7B10] (AR v2)
Track 3 accurately ripped (confidence 7) [3FC4B2D0] (AR v2)
Track 4 accurately ripped (confidence 7) [5AFF66EC] (AR v2)
Track 5 accurately ripped (confidence 7) [EBBBA632] (AR v2)
Track 6 accurately ripped (confidence 7) [3E1F3945] (AR v2)
Track 7 accurately ripped (confidence 7) [3D105864] (AR v2)
Track 8 accurately ripped (confidence 7) [15885F11] (AR v2)
Track 9 accurately ripped (confidence 7) [2A2082BC] (AR v2)

All tracks accurately ripped

End of status report

—- CUETools DB Plugin V2.1.4

[CTDB TOCID: 9JNejPt_gLfddiTuWOObyesvhd8-] found
Submit result: 9JNejPt_gLfddiTuWOObyesvhd8- has been confirmed
Track | CTDB Status
1 | (11/11) Accurately ripped
2 | (11/11) Accurately ripped
3 | (11/11) Accurately ripped
4 | (11/11) Accurately ripped
5 | (11/11) Accurately ripped
6 | (11/11) Accurately ripped
7 | (11/11) Accurately ripped
8 | (11/11) Accurately ripped
9 | (11/11) Accurately ripped

==== Log checksum 4275533E4748148B68C21E32CF32DEA56B74562AF826537BA256C7D6FDBCDC8D ====

REM GENRE Rock
REM DATE 1975
REM DISCID 6F0A1409
REM COMMENT “ExactAudioCopy v1.0b4”
PERFORMER “Eagles”
TITLE “Eagles – One Of These Nights”
FILE “Eagles – Eagles – One Of These Nights.flac” WAVE
TRACK 01 AUDIO
TITLE “One Of These Nights”
PERFORMER “Eagles”
INDEX 01 00:00:00
TRACK 02 AUDIO
TITLE “Too Many Hands”
PERFORMER “Eagles”
INDEX 01 04:50:62
TRACK 03 AUDIO
TITLE “Hollywood Waltz”
PERFORMER “Eagles”
INDEX 01 09:31:37
TRACK 04 AUDIO
TITLE “Journey Of The Sorcerer”
PERFORMER “Eagles”
INDEX 01 13:32:65
TRACK 05 AUDIO
TITLE “Lyin’ Eyes”
PERFORMER “Eagles”
INDEX 00 20:10:00
INDEX 01 20:11:65
TRACK 06 AUDIO
TITLE “Take It To The Limit”
PERFORMER “Eagles”
INDEX 01 26:33:10
TRACK 07 AUDIO
TITLE “Visions”
PERFORMER “Eagles”
INDEX 01 31:20:30
TRACK 08 AUDIO
TITLE “After The Thrill Is Gone”
PERFORMER “Eagles”
INDEX 01 35:18:65
TRACK 09 AUDIO
TITLE “I Wish You Peace”
PERFORMER “Eagles”
INDEX 01 39:15:07

Leave a Reply

Your email address will not be published. Required fields are marked *

This site uses Akismet to reduce spam. Learn how your comment data is processed.