Eagles – One Of These Nights




Artist: Eagles
Year: 1975/1985
Genre: Rock
Notes: Discogs
Add. Notes:
Cover incl.: Yes
Encoder: FLAC
Bitrate: ~800 kBit/s (44.1 kHz/16 Bit/s)
Log & Cue incl.: Yes
Size: 319,5 MB
Password: “slam” (without ” “)


All Downloads/Hosters are compatible

Download 1
Turbobit.net
Rapidgator.net
KatFile.com
UploadRar.com
Download 2
Turbobit.net
Rapidgator.net
KatFile.com
UploadRar.com

Tracklist:

1 - One Of These Nights - 4:51
2 - Too Many Hands - 4:42
3 - Hollywood Waltz - 4:04
4 - Journey Of The Sorcerer - 6:39
5 - Lyin' Eyes - 6:21
6 - Take It To The Limit - 4:48
7 - Visions - 4:00
8 - After The Thrill Is Gone - 3:58
9 - I Wish You Peace - 3:45

EAC-Log, CUE-Sheed & NFO:

Click to open spoiler
Exact Audio Copy V1.0 beta 3 from 29. August 2011

EAC extraction logfile from 10. January 2014, 21:25

Eagles / One of These Nights

Used drive : SONY BD RW BDX-S600U Adapter: 2 ID: 1

Read mode : Secure
Utilize accurate stream : Yes
Defeat audio cache : Yes
Make use of C2 pointers : No

Read offset correction : 48
Overread into Lead-In and Lead-Out : No
Fill up missing offset samples with silence : Yes
Delete leading and trailing silent blocks : No
Null samples used in CRC calculations : Yes
Used interface : Native Win32 interface for Win NT & 2000

Used output format : User Defined Encoder
Selected bitrate : 128 kBit/s
Quality : High
Add ID3 tag : No
Command line compressor : C:\Program Files (x86)\Exact Audio Copy\Flac\flac.exe
Additional command line options : -V -8 -T “Date=%year%” -T “Genre=%genre%” %source%

TOC of the extracted CD

Track | Start | Length | Start sector | End sector
———————————————————
1 | 0:00.00 | 4:51.02 | 0 | 21826
2 | 4:51.02 | 4:40.50 | 21827 | 42876
3 | 9:31.52 | 4:01.63 | 42877 | 61014
4 | 13:33.40 | 6:39.00 | 61015 | 90939
5 | 20:12.40 | 6:21.22 | 90940 | 119536
6 | 26:33.62 | 4:46.60 | 119537 | 141046
7 | 31:20.47 | 3:58.38 | 141047 | 158934
8 | 35:19.10 | 3:56.20 | 158935 | 176654
9 | 39:15.30 | 3:43.70 | 176655 | 193449

Range status and errors

Selected range

Filename D:\Eagles Discography\Studio\1975. Eagles – One of These Nights\1975. Eagles – One of These Nights (Asylum 7E-1039-2,Germany)\Eagles – One of These Nights.wav

Peak level 91.4 %
Extraction speed 6.4 X
Range quality 99.9 %
Test CRC C5144749
Copy CRC C5144749
Copy OK

No errors occurred

AccurateRip summary

Track 1 accurately ripped (confidence 39) [32706B91] (AR v2)
Track 2 accurately ripped (confidence 41) [6869EA7C] (AR v2)
Track 3 accurately ripped (confidence 41) [FC3868F5] (AR v2)
Track 4 accurately ripped (confidence 41) [A57B28A8] (AR v2)
Track 5 accurately ripped (confidence 41) [D40F21D0] (AR v2)
Track 6 accurately ripped (confidence 40) [FB386FE3] (AR v2)
Track 7 accurately ripped (confidence 40) [1B0AEB0E] (AR v2)
Track 8 accurately ripped (confidence 41) [0FD793E4] (AR v2)
Track 9 accurately ripped (confidence 41) [9D583CF3] (AR v2)

All tracks accurately ripped

End of status report

—- CUETools DB Plugin V2.1.3

[CTDB TOCID: lreak9gVusM6mqqRVLMx4gY3hR0-] found, Submit result: lreak9gVusM6mqqRVLMx4gY3hR0- has been confirmed
[ebf3ce95] (67/68) Accurately ripped
[a2a2dab9] (01/68) No match

==== Log checksum 570F60DAA4E233F8AED716DE77AB9980F2065D8CB05AEB8B94CA4B00F4285430 ====

REM GENRE Rock
REM DATE 1975
REM DISCID 730A1309
REM COMMENT “ExactAudioCopy v1.0b3”
CATALOG 2530140000007
PERFORMER “Eagles”
TITLE “One of These Nights”
FILE “Eagles – One of These Nights.flac” WAVE
TRACK 01 AUDIO
TITLE “One of These Nights”
PERFORMER “Eagles”
INDEX 01 00:00:00
TRACK 02 AUDIO
TITLE “Too Many Hands”
PERFORMER “Eagles”
INDEX 01 04:51:02
TRACK 03 AUDIO
TITLE “Hollywood Waltz”
PERFORMER “Eagles”
INDEX 01 09:31:52
TRACK 04 AUDIO
TITLE “Journey of the Sorcerer”
PERFORMER “Eagles”
INDEX 01 13:33:40
TRACK 05 AUDIO
TITLE “Lyin’ Eyes”
PERFORMER “Eagles”
INDEX 01 20:12:40
TRACK 06 AUDIO
TITLE “Take it to the Limit”
PERFORMER “Eagles”
INDEX 01 26:33:62
TRACK 07 AUDIO
TITLE “Visions”
PERFORMER “Eagles”
INDEX 01 31:20:47
TRACK 08 AUDIO
TITLE “After the Thrill is Gone”
PERFORMER “Eagles”
INDEX 01 35:19:10
TRACK 09 AUDIO
TITLE “I Wish You Peace”
PERFORMER “Eagles”
INDEX 01 39:15:30


Leave a Reply

Your email address will not be published. Required fields are marked *

This site uses Akismet to reduce spam. Learn how your comment data is processed.