Eagles – On The Border (Club Edition)




Artist: Eagles
Year: 1974/1996
Genre: Rock
Notes: Discogs
Add. Notes: Club Edition
Cover incl.: Yes
Encoder: FLAC
Bitrate: ~900 kBit/s (44.1 kHz/16 Bit/s)
Log & Cue incl.: Yes
Size: 284,3 MB
Password: “slam” (without ” “)


All Downloads/Hosters are compatible

Download 1
Turbobit.net
Rapidgator.net
UploadEver.com
KatFile.com
UsersDrive.com
Download 2
Turbobit.net
Rapidgator.net
UploadEver.com
KatFile.com
UsersDrive.com
Download 3
Turbobit.net
Rapidgator.net
UploadEver.com
KatFile.com
UsersDrive.com

Tracklist:

1 - Already Gone - 4:13
2 - You Never Cry Like A Lover - 4:02
3 - Midnight Flyer - 3:58
4 - My Man - 3:30
5 - On The Border - 4:28
6 - James Dean - 3:36
7 - Ol' 55 - 4:22
8 - Is It True? - 3:14
9 - Good Day In Hell - 4:27
10 - The Best Of My Love - 4:35

EAC-Log, CUE-Sheed & NFO:

Click to open spoiler
Exact Audio Copy V1.0 beta 3 from 29. August 2011

EAC extraction logfile from 2. February 2015, 20:16

Eagles / On The Border

Used drive : SONY BD RW BDX-S600U Adapter: 2 ID: 1

Read mode : Secure
Utilize accurate stream : Yes
Defeat audio cache : Yes
Make use of C2 pointers : No

Read offset correction : 48
Overread into Lead-In and Lead-Out : No
Fill up missing offset samples with silence : Yes
Delete leading and trailing silent blocks : No
Null samples used in CRC calculations : Yes
Used interface : Native Win32 interface for Win NT & 2000

Used output format : User Defined Encoder
Selected bitrate : 128 kBit/s
Quality : High
Add ID3 tag : No
Command line compressor : C:\Program Files (x86)\Exact Audio Copy\Flac\flac.exe
Additional command line options : -V -8 -T “Date=%year%” -T “Genre=%genre%” %source%

TOC of the extracted CD

Track | Start | Length | Start sector | End sector
———————————————————
1 | 0:00.32 | 4:16.25 | 32 | 19256
2 | 4:16.57 | 4:01.25 | 19257 | 37356
3 | 8:18.07 | 3:57.50 | 37357 | 55181
4 | 12:15.57 | 3:30.35 | 55182 | 70966
5 | 15:46.17 | 4:24.48 | 70967 | 90814
6 | 20:10.65 | 3:38.25 | 90815 | 107189
7 | 23:49.15 | 4:21.72 | 107190 | 126836
8 | 28:11.12 | 3:14.65 | 126837 | 141451
9 | 31:26.02 | 4:26.45 | 141452 | 161446
10 | 35:52.47 | 4:34.08 | 161447 | 182004

Range status and errors

Selected range

Filename D:\Eagles Discography\Studio\1974. Eagles – On The Border\1974. Eagles – On The Border (Asylum 7E-1004-2,club edition,US)\Eagles – On The Border.wav

Peak level 100.0 %
Extraction speed 6.2 X
Range quality 100.0 %
Test CRC EA12C174
Copy CRC EA12C174
Copy OK

No errors occurred

AccurateRip summary

Track 1 accurately ripped (confidence 7) [31CE90B1] (AR v2)
Track 2 accurately ripped (confidence 7) [8D5BD7D6] (AR v2)
Track 3 accurately ripped (confidence 7) [3BD99117] (AR v2)
Track 4 accurately ripped (confidence 7) [8014BD40] (AR v2)
Track 5 accurately ripped (confidence 7) [56AFE563] (AR v2)
Track 6 accurately ripped (confidence 7) [7A0D152A] (AR v2)
Track 7 accurately ripped (confidence 7) [B8FDD0D1] (AR v2)
Track 8 accurately ripped (confidence 7) [B98B5C04] (AR v2)
Track 9 accurately ripped (confidence 7) [293BAA60] (AR v2)
Track 10 accurately ripped (confidence 7) [8CD1484C] (AR v2)

All tracks accurately ripped

End of status report

—- CUETools DB Plugin V2.1.4

[CTDB TOCID: KP45Xs7b6WwDpHN3QN4UNK1mrGI-] found
Submit result: KP45Xs7b6WwDpHN3QN4UNK1mrGI- has been confirmed
Track | CTDB Status
1 | (4/4) Accurately ripped
2 | (4/4) Accurately ripped
3 | (4/4) Accurately ripped
4 | (4/4) Accurately ripped
5 | (4/4) Accurately ripped
6 | (4/4) Accurately ripped
7 | (4/4) Accurately ripped
8 | (4/4) Accurately ripped
9 | (4/4) Accurately ripped
10 | (4/4) Accurately ripped

==== Log checksum 42EBD81E189B401BFB1D3D7AE518537C37ECBE2F484ED0E2FBB465444DFD74AF ====

REM GENRE Rock
REM DATE 1974
REM DISCID 83097A0A
REM COMMENT “ExactAudioCopy v1.0b3”
CATALOG 0075590100423
PERFORMER “Eagles”
TITLE “On The Border”
FILE “Eagles – On The Border.flac” WAVE
TRACK 01 AUDIO
TITLE “Already Gone”
PERFORMER “Eagles”
INDEX 00 00:00:00
INDEX 01 00:00:32
TRACK 02 AUDIO
TITLE “You Never Cry Like A Lover”
PERFORMER “Eagles”
INDEX 00 04:15:72
INDEX 01 04:16:57
TRACK 03 AUDIO
TITLE “Midnight Flyer”
PERFORMER “Eagles”
INDEX 01 08:18:07
TRACK 04 AUDIO
TITLE “My Man”
PERFORMER “Eagles”
INDEX 01 12:15:57
TRACK 05 AUDIO
TITLE “On The Border”
PERFORMER “Eagles”
INDEX 00 15:45:50
INDEX 01 15:46:17
TRACK 06 AUDIO
TITLE “James Dean”
PERFORMER “Eagles”
INDEX 00 20:10:22
INDEX 01 20:10:65
TRACK 07 AUDIO
TITLE “Ol’ 55”
PERFORMER “Eagles”
INDEX 00 23:48:65
INDEX 01 23:49:15
TRACK 08 AUDIO
TITLE “Is It True?”
PERFORMER “Eagles”
INDEX 00 28:10:47
INDEX 01 28:11:12
TRACK 09 AUDIO
TITLE “Good Day In Hell”
PERFORMER “Eagles”
INDEX 01 31:26:02
TRACK 10 AUDIO
TITLE “The Best Of My Love”
PERFORMER “Eagles”
INDEX 00 35:51:62
INDEX 01 35:52:47


Leave a Reply

Your email address will not be published. Required fields are marked *

This site uses Akismet to reduce spam. Learn how your comment data is processed.