Eagles – On The Border (Remastered)




Artist: Eagles
Year: 1974/1999
Genre: Rock
Notes: Discogs
Add. Notes: Remastered
Cover incl.: Yes
Encoder: FLAC
Bitrate: ~800 kBit/s (44.1 kHz/16 Bit/s)
Log & Cue incl.: Yes
Size: 269,79 MB
Password: “slam” (without ” “)


All Downloads/Hosters are compatible

Download 1
Turbobit.net
Rapidgator.net
UploadByte.com
UploadEver.com
JustUpload.io
Download 2
Turbobit.net
Rapidgator.net
UploadByte.com
UploadEver.com
JustUpload.io
Download 3
Turbobit.net
Rapidgator.net
UploadByte.com
UploadEver.com
JustUpload.io

Tracklist:

1 - Already Gone - 4:13
2 - You Never Cry Like A Lover - 4:02
3 - Midnight Flyer - 3:58
4 - My Man - 3:30
5 - On The Border - 4:28
6 - James Dean - 3:36
7 - Ol' 55 - 4:22
8 - Is It True? - 3:14
9 - Good Day In Hell - 4:27
10 - The Best Of My Love - 4:35

EAC-Log, CUE-Sheed & NFO:

Click to open spoiler
Exact Audio Copy V1.0 beta 3 from 29. August 2011

EAC extraction logfile from 19. May 2014, 23:26

Eagles / On The Border

Used drive : SONY BD RW BDX-S600U Adapter: 2 ID: 1

Read mode : Secure
Utilize accurate stream : Yes
Defeat audio cache : Yes
Make use of C2 pointers : No

Read offset correction : 48
Overread into Lead-In and Lead-Out : No
Fill up missing offset samples with silence : Yes
Delete leading and trailing silent blocks : No
Null samples used in CRC calculations : Yes
Used interface : Native Win32 interface for Win NT & 2000

Used output format : User Defined Encoder
Selected bitrate : 128 kBit/s
Quality : High
Add ID3 tag : No
Command line compressor : C:\Program Files (x86)\Exact Audio Copy\Flac\flac.exe
Additional command line options : -V -8 -T “Date=%year%” -T “Genre=%genre%” %source%

TOC of the extracted CD

Track | Start | Length | Start sector | End sector
———————————————————
1 | 0:00.32 | 4:15.35 | 32 | 19191
2 | 4:15.67 | 4:00.63 | 19192 | 37254
3 | 8:16.55 | 3:57.02 | 37255 | 55031
4 | 12:13.57 | 3:33.60 | 55032 | 71066
5 | 15:47.42 | 4:25.23 | 71067 | 90964
6 | 20:12.65 | 3:37.45 | 90965 | 107284
7 | 23:50.35 | 4:22.25 | 107285 | 126959
8 | 28:12.60 | 3:14.17 | 126960 | 141526
9 | 31:27.02 | 4:24.18 | 141527 | 161344
10 | 35:51.20 | 4:32.32 | 161345 | 181776

Range status and errors

Selected range

Filename D:\Eagles Discography\Studio\1974. Eagles – On The Border\1974. Eagles – On The Border (Asylum 7E-1004-2,243 005(target),Germany)\Eagles – On The Border.wav

Peak level 91.2 %
Extraction speed 6.2 X
Range quality 100.0 %
Test CRC 5D13AAE4
Copy CRC 5D13AAE4
Copy OK

No errors occurred

AccurateRip summary

Track 1 accurately ripped (confidence 25) [51EC3A18] (AR v2)
Track 2 accurately ripped (confidence 26) [EA1F67D9] (AR v2)
Track 3 accurately ripped (confidence 25) [47089C84] (AR v2)
Track 4 accurately ripped (confidence 25) [05BA7059] (AR v2)
Track 5 accurately ripped (confidence 25) [F71FE1E2] (AR v2)
Track 6 accurately ripped (confidence 26) [C0064752] (AR v2)
Track 7 accurately ripped (confidence 26) [99859CD9] (AR v2)
Track 8 accurately ripped (confidence 26) [1E2F8D71] (AR v2)
Track 9 accurately ripped (confidence 25) [7C3126DE] (AR v2)
Track 10 accurately ripped (confidence 25) [13B3FCB8] (AR v2)

All tracks accurately ripped

End of status report

—- CUETools DB Plugin V2.1.4

[CTDB TOCID: b6TvowHwewcTOXHYpxFf6.IoUz0-] found
Submit result: b6TvowHwewcTOXHYpxFf6.IoUz0- has been confirmed
Track | CTDB Status
1 | (1/1) Accurately ripped
2 | (1/1) Accurately ripped
3 | (1/1) Accurately ripped
4 | (1/1) Accurately ripped
5 | (1/1) Accurately ripped
6 | (1/1) Accurately ripped
7 | (1/1) Accurately ripped
8 | (1/1) Accurately ripped
9 | (1/1) Accurately ripped
10 | (1/1) Accurately ripped

==== Log checksum AF3DB68EF4BC318C40834F490BF884036FC5084505FF6743AB934ED101A164B0 ====

REM GENRE Rock
REM DATE 1974
REM DISCID 9509770A
REM COMMENT “ExactAudioCopy v1.0b3”
CATALOG 0075590100423
PERFORMER “Eagles”
TITLE “On The Border”
FILE “Eagles – On The Border.flac” WAVE
TRACK 01 AUDIO
TITLE “Already Gone ”
PERFORMER “Eagles”
INDEX 00 00:00:00
INDEX 01 00:00:32
TRACK 02 AUDIO
TITLE “You Never Cry Like A Lover ”
PERFORMER “Eagles”
INDEX 00 04:14:17
INDEX 01 04:15:67
TRACK 03 AUDIO
TITLE “Midnight Flyer ”
PERFORMER “Eagles”
INDEX 00 08:15:47
INDEX 01 08:16:55
TRACK 04 AUDIO
TITLE “My Man ”
PERFORMER “Eagles”
INDEX 00 12:12:67
INDEX 01 12:13:57
TRACK 05 AUDIO
TITLE “On The Border ”
PERFORMER “Eagles”
INDEX 00 15:42:29
INDEX 01 15:47:42
TRACK 06 AUDIO
TITLE “James Dean ”
PERFORMER “Eagles”
INDEX 00 20:09:47
INDEX 01 20:12:65
TRACK 07 AUDIO
TITLE “Ol’ 55 ”
PERFORMER “Eagles”
INDEX 00 23:49:50
INDEX 01 23:50:35
TRACK 08 AUDIO
TITLE “Is It True ”
PERFORMER “Eagles”
INDEX 00 28:09:72
INDEX 01 28:12:60
TRACK 09 AUDIO
TITLE “Good Day In Hell ”
PERFORMER “Eagles”
INDEX 00 31:24:02
INDEX 01 31:27:02
TRACK 10 AUDIO
TITLE “The Best Of My Love ”
PERFORMER “Eagles”
INDEX 00 35:49:17
INDEX 01 35:51:20

Leave a Reply

Your email address will not be published. Required fields are marked *

This site uses Akismet to reduce spam. Learn how your comment data is processed.