Eagles – On The Border (Remastered)




Artist: Eagles
Year: 1974/2013
Genre: Rock
Notes: Discogs
Add. Notes: Remastered
Cover incl.: Yes
Encoder: FLAC
Bitrate: ~900 kBit/s (44.1 kHz/16 Bit/s)
Log & Cue incl.: Yes
Size: 309 MB
Password: “slam” (without ” “)


All Downloads/Hosters are compatible

Download 1
Turbobit.net
Rapidgator.net
UploadEver.com
KatFile.com
UsersDrive.com
Download 2
Turbobit.net
Rapidgator.net
UploadEver.com
KatFile.com
UsersDrive.com
Download 3
Turbobit.net
Rapidgator.net
UploadEver.com
KatFile.com
UsersDrive.com

Tracklist:

1 - Already Gone - 4:13
2 - You Never Cry Like A Lover - 4:02
3 - Midnight Flyer - 3:58
4 - My Man - 3:30
5 - On The Border - 4:28
6 - James Dean - 3:36
7 - Ol' 55 - 4:22
8 - Is It True? - 3:14
9 - Good Day In Hell - 4:27
10 - The Best Of My Love - 4:35

EAC-Log, CUE-Sheed & NFO:

Click to open spoiler
Exact Audio Copy V1.0 beta 3 from 29. August 2011

EAC extraction logfile from 13. June 2016, 14:47

Eagles / On The Border

Used drive : PLEXTOR DVDR PX-L890SA Adapter: 5 ID: 1

Read mode : Secure
Utilize accurate stream : Yes
Defeat audio cache : Yes
Make use of C2 pointers : No

Read offset correction : 6
Overread into Lead-In and Lead-Out : No
Fill up missing offset samples with silence : Yes
Delete leading and trailing silent blocks : No
Null samples used in CRC calculations : Yes
Used interface : Native Win32 interface for Win NT & 2000

Used output format : User Defined Encoder
Selected bitrate : 768 kBit/s
Quality : High
Add ID3 tag : No
Command line compressor : C:\Program Files (x86)\Exact Audio Copy\Flac\flac.exe
Additional command line options : -V -8 -T “Date=%year%” -T “Genre=%genre%” %source%

TOC of the extracted CD

Track | Start | Length | Start sector | End sector
———————————————————
1 | 0:00.00 | 4:15.55 | 0 | 19179
2 | 4:15.55 | 4:00.72 | 19180 | 37251
3 | 8:16.52 | 3:58.10 | 37252 | 55111
4 | 12:14.62 | 3:30.43 | 55112 | 70904
5 | 15:45.30 | 4:24.07 | 70905 | 90711
6 | 20:09.37 | 3:38.28 | 90712 | 107089
7 | 23:47.65 | 4:21.67 | 107090 | 126731
8 | 28:09.57 | 3:14.50 | 126732 | 141331
9 | 31:24.32 | 4:26.53 | 141332 | 161334
10 | 35:51.10 | 4:34.27 | 161335 | 181911

Range status and errors

Selected range

Filename H:\MUSIC\Eagles\1974. Eagles – On The Border (Warner-Asylum 8122796746-3, EU)\Eagles – On The Border.wav

Peak level 99.8 %
Extraction speed 7.8 X
Range quality 100.0 %
Test CRC 860F5FCF
Copy CRC 860F5FCF
Copy OK

No errors occurred

AccurateRip summary

Track 1 accurately ripped (confidence 151) [F6C05A5D] (AR v2)
Track 2 accurately ripped (confidence 150) [1C920AF2] (AR v2)
Track 3 accurately ripped (confidence 151) [92333CAF] (AR v2)
Track 4 accurately ripped (confidence 151) [3A9F2BA8] (AR v2)
Track 5 accurately ripped (confidence 150) [86266B76] (AR v2)
Track 6 accurately ripped (confidence 152) [2EED13A6] (AR v2)
Track 7 accurately ripped (confidence 152) [836ABBD2] (AR v2)
Track 8 accurately ripped (confidence 150) [7FE59A32] (AR v2)
Track 9 accurately ripped (confidence 150) [DC170E6D] (AR v2)
Track 10 accurately ripped (confidence 151) [CFB39E2A] (AR v2)

All tracks accurately ripped

End of status report

==== Log checksum ADA2C315B90163BBD85B40A5112EF4079975D865AB6A1DD029368DED655F8964 ====
REM GENRE Rock
REM DATE 1974
REM DISCID 9109790A
REM COMMENT “ExactAudioCopy v1.0b3”
PERFORMER “Eagles”
TITLE “On The Border”
FILE “Eagles – On The Border.flac” WAVE
TRACK 01 AUDIO
TITLE “Already Gone”
PERFORMER “Eagles”
INDEX 01 00:00:00
TRACK 02 AUDIO
TITLE “You Never Cry Like A Lover”
PERFORMER “Eagles”
INDEX 01 04:15:55
TRACK 03 AUDIO
TITLE “Midnight Flyer”
PERFORMER “Eagles”
INDEX 01 08:16:52
TRACK 04 AUDIO
TITLE “My Man”
PERFORMER “Eagles”
INDEX 01 12:14:62
TRACK 05 AUDIO
TITLE “On The Border”
PERFORMER “Eagles”
INDEX 01 15:45:30
TRACK 06 AUDIO
TITLE “James Dean”
PERFORMER “Eagles”
INDEX 00 20:08:02
INDEX 01 20:09:37
TRACK 07 AUDIO
TITLE “Ol’ 55”
PERFORMER “Eagles”
INDEX 01 23:47:65
TRACK 08 AUDIO
TITLE “Is It True”
PERFORMER “Eagles”
INDEX 01 28:09:57
TRACK 09 AUDIO
TITLE “Good Day In Hell”
PERFORMER “Eagles”
INDEX 01 31:24:32
TRACK 10 AUDIO
TITLE “The Best Of My Love”
PERFORMER “Eagles”
INDEX 01 35:51:10


Leave a Reply

Your email address will not be published. Required fields are marked *

This site uses Akismet to reduce spam. Learn how your comment data is processed.