Eagles – Long Road Out Of Eden (Limited Deluxe Edition)




Artist: Eagles
Year: 2007
Genre: Rock
Notes: Discogs
Add. Notes: Limited Deluxe Edition
Cover incl.: Yes
Encoder: FLAC
Bitrate: ~1000 kBit/s (44.1 kHz/16 Bit/s)
Log & Cue incl.: Yes
Size: 728,8 MB
Password: “slam” (without ” “)


All Downloads/Hosters are compatible

Download 1
Turbobit.net
KatFile.com
Rapidgator.net
Usersdrive.com
Download 2
Turbobit.net
KatFile.com
Rapidgator.net
Usersdrive.com

Tracklist:

1-1 - No More Walks In The Wood - 2:00
1-2 - How Long - 3:15
1-3 - Busy Being Fabulous - 4:21
1-4 - What Do I Do With My Heart - 3:55
1-5 - Guilty Of The Crime - 3:44
1-6 - I Don't Want To Hear Any More - 4:21
1-7 - Waiting In The Weeds - 7:46
1-8 - No More Cloudy Days - 4:04
1-9 - Fast Company - 4:01
1-10 - Do Something - 5:13
1-11 - You Are Not Alone - 2:22

2-1 - Long Road Out Of Eden - 10:17
2-2 - I Dreamed There Was No War - 1:38
2-3 - Somebody - 4:10
2-4 - Frail Grasp On The Big Picture - 5:47
2-5 - Last Good Time In Town - 7:08
2-6 - I Love To Watch A Woman Dance - 3:16
2-7 - Business As Usual - 5:32
2-8 - Center Of The Universe - 3:42
2-9 - It's Your World Now - 4:20
Bonus Tracks
2-10 - Hole In The World - 4:18
2-11 - Please Come Home For Christmas - 2:58

EAC-Log, CUE-Sheed & NFO:

Click to open spoiler
Exact Audio Copy V1.0 beta 3 from 29. August 2011

Отчёт EAC об извлечении, выполненном 26. ноября 2011, 15:26

Eagles / Long Road Out Of Eden – Deluxe Collectors Edition CD1

Дисковод: SONY CD-RW CRX230ED Adapter: 0 ID: 1

Режим чтения : Достоверность
Использование точного потока : Да
Отключение кэша аудио : Да
Использование указателей C2 : Нет

Коррекция смещения при чтении : 6
Способность читать области Lead-in и Lead-out : Нет
Заполнение пропущенных сэмплов тишиной : Да
Удаление блоков с тишиной в начале и конце : Нет
При вычислениях CRC использовались нулевые сэмплы : Да
Интерфейс : Установленный внешний ASPI-интерфейс

Выходной формат : Внутренние WAV-операции
Формат сэмплов : 44.100 Гц; 16 бит; стерео

TOC извлечённого CD

Трек | Старт | Длительность | Начальный сектор | Конечный сектор
———————————————————————
1 | 0:00.00 | 2:00.65 | 0 | 9064
2 | 2:00.65 | 3:16.05 | 9065 | 23769
3 | 5:16.70 | 4:20.69 | 23770 | 43338
4 | 9:37.64 | 3:54.26 | 43339 | 60914
5 | 13:32.15 | 3:43.65 | 60915 | 77704
6 | 17:16.05 | 4:21.09 | 77705 | 97288
7 | 21:37.14 | 7:46.36 | 97289 | 132274
8 | 29:23.50 | 4:03.23 | 132275 | 150522
9 | 33:26.73 | 4:00.52 | 150523 | 168574
10 | 37:27.50 | 5:12.34 | 168575 | 192008
11 | 42:40.09 | 2:24.16 | 192009 | 202824

Характеристики диапазона извлечения и сообщения об ошибках

Выбранный диапазон

Имя файла E:\MusicCD\Torrent\Eagles – Long Road Out Of Eden\Eagles – Long Road Out Of Eden – Deluxe Collectors Edition CD1.wav

Пиковый уровень 100.0 %
Скорость извлечения 7.3 X
Качество диапазона 99.9 %
CRC теста 82BAE0DA
CRC копии 82BAE0DA
Копирование… OK

Ошибок не произошло

AccurateRip: сводка

Трек 1 : извлечено точно (доверие 68) [66127139] (AR v2)
Трек 2 : извлечено точно (доверие 69) [A40DD9A6] (AR v2)
Трек 3 : извлечено точно (доверие 69) [1F5268AE] (AR v2)
Трек 4 : извлечено точно (доверие 68) [34A5FB48] (AR v2)
Трек 5 : извлечено точно (доверие 68) [8E2067BE] (AR v2)
Трек 6 : извлечено точно (доверие 68) [9C21C267] (AR v2)
Трек 7 : извлечено точно (доверие 67) [7EF8438C] (AR v2)
Трек 8 : извлечено точно (доверие 67) [1DCC5106] (AR v2)
Трек 9 : извлечено точно (доверие 65) [6EA228FB] (AR v2)
Трек 10 : извлечено точно (доверие 65) [972DDBB5] (AR v2)
Трек 11 : извлечено точно (доверие 69) [28501F75] (AR v2)

Все треки извлечены точно

Конец отчёта

==== Контрольная сумма отчёта 5CCFE8737C0C580F7D43F92F237704FCE5E2ED78DA8FCFE86FF0274D9F1FBA7E ====

Exact Audio Copy V1.0 beta 3 from 29. August 2011

Отчёт EAC об извлечении, выполненном 26. ноября 2011, 15:55

Eagles / Long Road Out Of Eden – Deluxe Collectors Edition CD2

Дисковод: SONY CD-RW CRX230ED Adapter: 0 ID: 1

Режим чтения : Достоверность
Использование точного потока : Да
Отключение кэша аудио : Да
Использование указателей C2 : Нет

Коррекция смещения при чтении : 6
Способность читать области Lead-in и Lead-out : Нет
Заполнение пропущенных сэмплов тишиной : Да
Удаление блоков с тишиной в начале и конце : Нет
При вычислениях CRC использовались нулевые сэмплы : Да
Интерфейс : Установленный внешний ASPI-интерфейс

Выходной формат : Внутренние WAV-операции
Формат сэмплов : 44.100 Гц; 16 бит; стерео

TOC извлечённого CD

Трек | Старт | Длительность | Начальный сектор | Конечный сектор
———————————————————————
1 | 0:00.00 | 10:17.06 | 0 | 46280
2 | 10:17.06 | 1:37.71 | 46281 | 53626
3 | 11:55.02 | 4:09.38 | 53627 | 72339
4 | 16:04.40 | 5:46.15 | 72340 | 98304
5 | 21:50.55 | 7:07.30 | 98305 | 130359
6 | 28:58.10 | 3:16.08 | 130360 | 145067
7 | 32:14.18 | 5:31.32 | 145068 | 169924
8 | 37:45.50 | 3:42.10 | 169925 | 186584
9 | 41:27.60 | 4:20.20 | 186585 | 206104
10 | 45:48.05 | 4:19.17 | 206105 | 225546
11 | 50:07.22 | 3:00.31 | 225547 | 239077

Характеристики диапазона извлечения и сообщения об ошибках

Выбранный диапазон

Имя файла E:\MusicCD\Torrent\Eagles – Long Road Out Of Eden\Eagles – Long Road Out Of Eden – Deluxe Collectors Edition CD2.wav

Пиковый уровень 100.0 %
Скорость извлечения 6.0 X
Качество диапазона 100.0 %
CRC теста 6CE82916
CRC копии 6CE82916
Копирование… OK

Ошибок не произошло

AccurateRip: сводка

Трек 1 : извлечено точно (доверие 15) [07CDDEC0] (AR v2)
Трек 2 : извлечено точно (доверие 15) [900A9833] (AR v2)
Трек 3 : извлечено точно (доверие 15) [0094C900] (AR v2)
Трек 4 : извлечено точно (доверие 15) [CF8FC785] (AR v2)
Трек 5 : извлечено точно (доверие 15) [86616B1F] (AR v2)
Трек 6 : извлечено точно (доверие 15) [7305C7B0] (AR v2)
Трек 7 : извлечено точно (доверие 15) [1A885DB0] (AR v2)
Трек 8 : извлечено точно (доверие 15) [10454EA5] (AR v2)
Трек 9 : извлечено точно (доверие 15) [C0B78A43] (AR v2)
Трек 10 : извлечено точно (доверие 17) [E5637517] (AR v2)
Трек 11 : извлечено точно (доверие 17) [AFA31969] (AR v2)

Все треки извлечены точно

Конец отчёта

==== Контрольная сумма отчёта AC0F96F3156B7CE6125C14539C8CADEBDCA59A08DE91B9DBB11EA9A48BD259F1 ====

REM GENRE Rock
REM DATE 2007
REM DISCID 930A900B
REM COMMENT “ExactAudioCopy v1.0b3”
PERFORMER “Eagles”
TITLE “Long Road Out Of Eden – Deluxe Collectors Edition CD1”
FILE “Eagles – Long Road Out Of Eden – Deluxe Collectors Edition CD1.flac” WAVE
TRACK 01 AUDIO
TITLE “No More Walks In The Wood”
PERFORMER “Eagles”
INDEX 01 00:00:00
TRACK 02 AUDIO
TITLE “How Long”
PERFORMER “Eagles”
INDEX 01 02:00:65
TRACK 03 AUDIO
TITLE “Busy Being Fabulous”
PERFORMER “Eagles”
INDEX 00 05:15:54
INDEX 01 05:16:70
TRACK 04 AUDIO
TITLE “What Do I Do With My Heart”
PERFORMER “Eagles”
INDEX 01 09:37:64
TRACK 05 AUDIO
TITLE “Guilty Of The Crime”
PERFORMER “Eagles”
INDEX 01 13:32:15
TRACK 06 AUDIO
TITLE “I Don’t Want To Hear Any More”
PERFORMER “Eagles”
INDEX 01 17:16:05
TRACK 07 AUDIO
TITLE “Waiting In The Weeds”
PERFORMER “Eagles”
INDEX 01 21:37:14
TRACK 08 AUDIO
TITLE “No More Cloudy Days”
PERFORMER “Eagles”
INDEX 01 29:23:50
TRACK 09 AUDIO
TITLE “Fast Company”
PERFORMER “Eagles”
INDEX 01 33:26:73
TRACK 10 AUDIO
TITLE “Do Something”
PERFORMER “Eagles”
INDEX 01 37:27:50
TRACK 11 AUDIO
TITLE “You Are Not Alone”
PERFORMER “Eagles”
INDEX 01 42:40:09

REM GENRE Rock
REM DATE 2007
REM DISCID 9E0C730B
REM COMMENT “ExactAudioCopy v1.0b3”
PERFORMER “Eagles”
TITLE “Long Road Out Of Eden – Deluxe Collectors Edition CD2”
FILE “Eagles – Long Road Out Of Eden – Deluxe Collectors Edition CD2.flac” WAVE
TRACK 01 AUDIO
TITLE “Long Road Out Of Eden”
PERFORMER “Eagles”
INDEX 01 00:00:00
TRACK 02 AUDIO
TITLE “I Dreamed There Was No War”
PERFORMER “Eagles”
INDEX 01 10:17:06
TRACK 03 AUDIO
TITLE “Somebody”
PERFORMER “Eagles”
INDEX 01 11:55:02
TRACK 04 AUDIO
TITLE “Frail Grasp On The Big Picture”
PERFORMER “Eagles”
INDEX 01 16:04:40
TRACK 05 AUDIO
TITLE “Last Good Time In Town”
PERFORMER “Eagles”
INDEX 01 21:50:55
TRACK 06 AUDIO
TITLE “I Love To Watch A Woman Dance”
PERFORMER “Eagles”
INDEX 01 28:58:10
TRACK 07 AUDIO
TITLE “Business As Usual”
PERFORMER “Eagles”
INDEX 01 32:14:18
TRACK 08 AUDIO
TITLE “Center Of The Universe”
PERFORMER “Eagles”
INDEX 01 37:45:50
TRACK 09 AUDIO
TITLE “It’s Your World Now”
PERFORMER “Eagles”
INDEX 01 41:27:60
TRACK 10 AUDIO
TITLE “Hole In The World (Bonus Track)”
PERFORMER “Eagles”
INDEX 00 45:48:01
INDEX 01 45:48:05
TRACK 11 AUDIO
TITLE “Please Come Home For Christmas (Bonus Track)”
PERFORMER “Eagles”
INDEX 00 50:05:19
INDEX 01 50:07:22


Leave a Reply

Your email address will not be published. Required fields are marked *

Enter the text from the image below
 

This site uses Akismet to reduce spam. Learn how your comment data is processed.