Eagles Live – Eagles




Artist: Eagles Live
Year: 1980/1989
Genre: Rock
Notes: Discogs
Add. Notes:
Cover incl.: Yes
Encoder: FLAC
Bitrate: ~800 kBit/s (44.1 kHz/16 Bit/s)
Log & Cue incl.: Yes
Size: 710,37 MB
Password: “slam” (without ” “)


All Downloads/Hosters are compatible

Download 1
Turbobit.net
Rapidgator.net
KatFile.com
UploadRar.com
Download 2
Turbobit.net
Rapidgator.net
KatFile.com
UploadRar.com

Tracklist:

1-1 - Hotel California - 6:55
1-2 - Heartache Tonight - 4:35
1-3 - I Can't Tell You Why - 5:24
1-4 - The Long Run - 5:35
1-5 - New Kid In Town - 5:45
1-6 - Life's Been Good - 9:38

2-1 - Seven Bridges Road - 3:25
2-2 - Wasted Time - 5:40
2-3 - Take It To The Limit - 5:20
2-4 - Doolin-Dalton (Reprise II) - 0:44
2-5 - Desperado - 4:04
2-6 - Saturday Night - 3:55
2-7 - All Night Long - 5:40
2-8 - Life In The Fast Lane - 5:10
2-9 - Take It Easy - 5:20

EAC-Log, CUE-Sheed & NFO:

Click to open spoiler
Exact Audio Copy V1.3 from 2. September 2016

EAC extraction logfile from 23. April 2018, 10:32

Eagles / Eagles Live {CD 1}

Used drive : HL-DT-STDVD-RAM GSA-H20N Adapter: 1 ID: 1

Read mode : Secure
Utilize accurate stream : Yes
Defeat audio cache : Yes
Make use of C2 pointers : No

Read offset correction : 102
Overread into Lead-In and Lead-Out : No
Fill up missing offset samples with silence : Yes
Delete leading and trailing silent blocks : No
Null samples used in CRC calculations : Yes
Used interface : Native Win32 interface for Win NT & 2000

Used output format : User Defined Encoder
Selected bitrate : 768 kBit/s
Quality : High
Add ID3 tag : No
Command line compressor : C:\Program Files (x86)\Exact Audio Copy\FLAC\FLAC.EXE
Additional command line options : -V -8 -T “Date=%year%” -T “Genre=%genre%” %source%

TOC of the extracted CD

Track | Start | Length | Start sector | End sector
———————————————————
1 | 0:00.32 | 7:00.53 | 32 | 31584
2 | 7:01.10 | 4:34.10 | 31585 | 52144
3 | 11:35.20 | 5:18.25 | 52145 | 76019
4 | 16:53.45 | 5:35.02 | 76020 | 101146
5 | 22:28.47 | 5:45.20 | 101147 | 127041
6 | 28:13.67 | 9:36.68 | 127042 | 170309

Range status and errors

Selected range

Filename K:\Eagles Discography\Live\1980. Eagles – Eagles Live\1980. Eagles – Eagles Live (Elektra-Asylum Rec., CD705, Canada)\disc1\Eagles – Eagles Live {CD 1}.wav

Peak level 100.0 %
Extraction speed 2.4 X
Range quality 100.0 %
Test CRC 74D436AE
Copy CRC 74D436AE
Copy OK

No errors occurred

AccurateRip summary

Track 1 accurately ripped (confidence 29) [E4DA4084] (AR v2)
Track 2 accurately ripped (confidence 29) [DAA76F4A] (AR v2)
Track 3 accurately ripped (confidence 28) [8318FDA9] (AR v2)
Track 4 accurately ripped (confidence 29) [A1C86312] (AR v2)
Track 5 accurately ripped (confidence 27) [1A5129B5] (AR v2)
Track 6 accurately ripped (confidence 26) [59071923] (AR v2)

All tracks accurately ripped

End of status report

—- CUETools DB Plugin V2.1.6

[CTDB TOCID: 1qBIKEEZ.WYhh15SqG8XVPEWBuA-] found
Submit result: 1qBIKEEZ.WYhh15SqG8XVPEWBuA- has been confirmed
Track | CTDB Status
1 | (59/63) Accurately ripped
2 | (62/63) Accurately ripped
3 | (62/63) Accurately ripped
4 | (61/63) Accurately ripped
5 | (60/63) Accurately ripped
6 | (56/63) Accurately ripped

==== Log checksum FBCBF1D1E2FB435B71BC21FE9A89BF27298DA4025053502966BBF055CC805B16 ====

Exact Audio Copy V1.3 from 2. September 2016

EAC extraction logfile from 23. April 2018, 11:11

Eagles / Eagles Live {CD 2}

Used drive : HL-DT-STDVD-RAM GSA-H20N Adapter: 1 ID: 1

Read mode : Secure
Utilize accurate stream : Yes
Defeat audio cache : Yes
Make use of C2 pointers : No

Read offset correction : 102
Overread into Lead-In and Lead-Out : No
Fill up missing offset samples with silence : Yes
Delete leading and trailing silent blocks : No
Null samples used in CRC calculations : Yes
Used interface : Native Win32 interface for Win NT & 2000

Used output format : User Defined Encoder
Selected bitrate : 768 kBit/s
Quality : High
Add ID3 tag : No
Command line compressor : C:\Program Files (x86)\Exact Audio Copy\FLAC\FLAC.EXE
Additional command line options : -V -8 -T “Date=%year%” -T “Genre=%genre%” %source%

TOC of the extracted CD

Track | Start | Length | Start sector | End sector
———————————————————
1 | 0:00.32 | 3:26.28 | 32 | 15509
2 | 3:26.60 | 5:44.70 | 15510 | 41379
3 | 9:11.55 | 5:18.07 | 41380 | 65236
4 | 14:29.62 | 0:42.00 | 65237 | 68386
5 | 15:11.62 | 4:01.03 | 68387 | 86464
6 | 19:12.65 | 3:53.45 | 86465 | 103984
7 | 23:06.35 | 5:41.47 | 103985 | 129606
8 | 28:48.07 | 5:12.63 | 129607 | 153069
9 | 34:00.70 | 5:28.42 | 153070 | 177711

Range status and errors

Selected range

Filename K:\Eagles Discography\Live\1980. Eagles – Eagles Live\1980. Eagles – Eagles Live (Elektra-Asylum Rec., CD705, Canada)\disc2\Eagles – Eagles Live {CD 2}.wav

Peak level 97.7 %
Extraction speed 2.4 X
Range quality 99.9 %
Test CRC 15A21038
Copy CRC 15A21038
Copy OK

No errors occurred

AccurateRip summary

Track 1 cannot be verified as accurate (confidence 42) [DC979FEC], AccurateRip returned [52F405DD] (AR v2)
Track 2 cannot be verified as accurate (confidence 44) [078B2184], AccurateRip returned [1CC3C31D] (AR v2)
Track 3 cannot be verified as accurate (confidence 43) [6C012082], AccurateRip returned [9A8D1551] (AR v2)
Track 4 cannot be verified as accurate (confidence 44) [215D04F2], AccurateRip returned [8EDDF88C] (AR v2)
Track 5 cannot be verified as accurate (confidence 44) [E5B69A53], AccurateRip returned [E48F3514] (AR v2)
Track 6 cannot be verified as accurate (confidence 43) [DE6AF3D2], AccurateRip returned [6FB5F423] (AR v2)
Track 7 cannot be verified as accurate (confidence 42) [A2F213A1], AccurateRip returned [57D0DD14] (AR v2)
Track 8 cannot be verified as accurate (confidence 41) [09A0D2E9], AccurateRip returned [82F8AA44] (AR v2)
Track 9 cannot be verified as accurate (confidence 40) [08B70204], AccurateRip returned [889D9227] (AR v2)

No tracks could be verified as accurate
You may have a different pressing from the one(s) in the database

End of status report

—- CUETools DB Plugin V2.1.6

[CTDB TOCID: jeHHBhjrQB8ZGb7lZ9JVjrJW6S8-] found
Submit result: jeHHBhjrQB8ZGb7lZ9JVjrJW6S8- has been confirmed
Track | CTDB Status
1 | (105/111) Accurately ripped
2 | (109/111) Accurately ripped
3 | (109/111) Accurately ripped
4 | (109/111) Accurately ripped
5 | (107/111) Accurately ripped
6 | (108/111) Accurately ripped
7 | (107/111) Accurately ripped
8 | (107/111) Accurately ripped
9 | (101/111) Accurately ripped

==== Log checksum A80311FAB3CABF9A4377C30E1DD68F6B7AF11AA1A3680AB8F0CF8D4E63A3277C ====

REM GENRE Rock
REM DATE 1980
REM DISCID 4608DE06
REM COMMENT “ExactAudioCopy v1.3”
PERFORMER “Eagles”
TITLE “Eagles Live {CD 1}”
REM COMPOSER “”
FILE “Eagles – Eagles Live {CD 1}.flac” WAVE
TRACK 01 AUDIO
TITLE “Hotel California”
PERFORMER “Eagles”
REM COMPOSER “”
INDEX 00 00:00:00
INDEX 01 00:00:32
INDEX 02 00:20:15
TRACK 02 AUDIO
TITLE “Heartache Tonight”
PERFORMER “Eagles”
REM COMPOSER “”
INDEX 01 07:01:10
TRACK 03 AUDIO
TITLE “I Can’t Tell You Why”
PERFORMER “Eagles”
REM COMPOSER “”
INDEX 01 11:35:20
TRACK 04 AUDIO
TITLE “The Long Run”
PERFORMER “Eagles”
REM COMPOSER “”
INDEX 00 16:52:70
INDEX 01 16:53:45
INDEX 02 17:09:12
TRACK 05 AUDIO
TITLE “New Kid in Town”
PERFORMER “Eagles”
REM COMPOSER “”
INDEX 01 22:28:47
INDEX 02 23:00:65
TRACK 06 AUDIO
TITLE “Life’s Been Good”
PERFORMER “Eagles”
REM COMPOSER “”
INDEX 01 28:13:67
INDEX 02 28:54:45

REM GENRE Rock
REM DATE 1980
REM DISCID 68094109
REM COMMENT “ExactAudioCopy v1.3”
PERFORMER “Eagles”
TITLE “Eagles Live {CD 2}”
REM COMPOSER “”
FILE “Eagles – Eagles Live {CD 2}.flac” WAVE
TRACK 01 AUDIO
TITLE “Seven Bridges Road”
PERFORMER “Eagles”
REM COMPOSER “”
INDEX 00 00:00:00
INDEX 01 00:00:32
INDEX 02 00:14:30
TRACK 02 AUDIO
TITLE “Wasted Time”
PERFORMER “Eagles”
REM COMPOSER “”
INDEX 01 03:26:60
INDEX 02 03:54:25
TRACK 03 AUDIO
TITLE “Take It To The Limit”
PERFORMER “Eagles”
REM COMPOSER “”
INDEX 01 09:11:55
INDEX 02 09:15:50
TRACK 04 AUDIO
TITLE “Doolin-Dalton (Reprise II)”
PERFORMER “Eagles”
REM COMPOSER “”
INDEX 01 14:29:62
TRACK 05 AUDIO
TITLE “Desperado”
PERFORMER “Eagles”
REM COMPOSER “”
INDEX 01 15:11:62
TRACK 06 AUDIO
TITLE “Saturday Night”
PERFORMER “Eagles”
REM COMPOSER “”
INDEX 01 19:12:65
INDEX 02 19:33:12
TRACK 07 AUDIO
TITLE “All Night Long”
PERFORMER “Eagles”
REM COMPOSER “”
INDEX 01 23:06:35
INDEX 02 23:20:50
INDEX 03 28:48:07
TRACK 08 AUDIO
TITLE “Life In The Fast Lane”
PERFORMER “Eagles”
REM COMPOSER “”
INDEX 01 28:48:07
INDEX 02 28:55:45
TRACK 09 AUDIO
TITLE “Take It Easy”
PERFORMER “Eagles”
REM COMPOSER “”
INDEX 01 34:00:70
INDEX 02 34:05:25


Leave a Reply

Your email address will not be published. Required fields are marked *

This site uses Akismet to reduce spam. Learn how your comment data is processed.