Eagles – Hotel California




Artist: Eagles
Year: 1976
Genre: Rock
Notes: Discogs
Add. Notes:
Cover incl.: Yes
Encoder: FLAC
Bitrate: ~900 kBit/s (44.1 kHz/16 Bit/s)
Log & Cue incl.: Yes
Size: 392,38 MB
Password: “slam” (without ” “)


All Downloads/Hosters are compatible

Download 1
Turbobit.net
Rapidgator.net
UploadEver.com
KatFile.com
UsersDrive.com
Download 2
Turbobit.net
Rapidgator.net
UploadEver.com
KatFile.com
UsersDrive.com
Download 3
Turbobit.net
Rapidgator.net
UploadEver.com
KatFile.com
UsersDrive.com

Tracklist:

1 - Hotel California - 6:30
2 - New Kid In Town - 5:04
3 - Life In The Fast Lane - 4:46
4 - Wasted Time - 4:55
5 - Wasted Time (Reprise) - 1:22
6 - Victim Of Love - 4:11
7 - Pretty Maids All In A Row - 4:05
8 - Try And Love Again - 5:10
9 - The Last Resort - 7:25

EAC-Log, CUE-Sheed & NFO:

Click to open spoiler
Exact Audio Copy V1.0 beta 3 from 29. August 2011

Отчёт EAC об извлечении, выполненном 22. ноября 2011, 20:49

Eagles / Hotel California

Дисковод: SONY CD-RW CRX230ED Adapter: 0 ID: 1

Режим чтения : Достоверность
Использование точного потока : Да
Отключение кэша аудио : Да
Использование указателей C2 : Нет

Коррекция смещения при чтении : 6
Способность читать области Lead-in и Lead-out : Нет
Заполнение пропущенных сэмплов тишиной : Да
Удаление блоков с тишиной в начале и конце : Нет
При вычислениях CRC использовались нулевые сэмплы : Да
Интерфейс : Установленный внешний ASPI-интерфейс

Выходной формат : Внутренние WAV-операции
Формат сэмплов : 44.100 Гц; 16 бит; стерео

TOC извлечённого CD

Трек | Старт | Длительность | Начальный сектор | Конечный сектор
———————————————————————
1 | 0:00.32 | 6:30.20 | 32 | 29301
2 | 6:30.52 | 5:03.63 | 29302 | 52089
3 | 11:34.40 | 4:46.07 | 52090 | 73546
4 | 16:20.47 | 4:56.33 | 73547 | 95779
5 | 21:17.05 | 1:23.20 | 95780 | 102024
6 | 22:40.25 | 4:09.22 | 102025 | 120721
7 | 26:49.47 | 3:58.38 | 120722 | 138609
8 | 30:48.10 | 5:10.52 | 138610 | 161911
9 | 35:58.62 | 7:28.55 | 161912 | 195566

Характеристики диапазона извлечения и сообщения об ошибках

Выбранный диапазон

Имя файла E:\MusicCD\Torrent\Eagles – Hotel California\Eagles – Hotel California.wav

Пиковый уровень 99.8 %
Скорость извлечения 7.2 X
Качество диапазона 99.9 %
CRC теста 09C41166
CRC копии 09C41166
Копирование… OK

Ошибок не произошло

AccurateRip: сводка

Трек 1 : извлечено точно (доверие 13) [C7EAEE89] (AR v2)
Трек 2 : извлечено точно (доверие 13) [6BD26E56] (AR v2)
Трек 3 : извлечено точно (доверие 12) [7B83FCFE] (AR v2)
Трек 4 : извлечено точно (доверие 12) [B83C48B1] (AR v2)
Трек 5 : извлечено точно (доверие 12) [47F632D2] (AR v2)
Трек 6 : извлечено точно (доверие 12) [C215158F] (AR v2)
Трек 7 : извлечено точно (доверие 11) [7DFC9F0D] (AR v2)
Трек 8 : извлечено точно (доверие 11) [43ADAABE] (AR v2)
Трек 9 : извлечено точно (доверие 10) [A2D0A832] (AR v2)

Все треки извлечены точно

Конец отчёта

==== Контрольная сумма отчёта ACB474BD7FC78876603F67F23CCE9BFBAC9F21DC7D03C90074A4D6577171E47D ====

REM GENRE Rock
REM DATE 1976
REM DISCID 770A2F09
REM COMMENT “ExactAudioCopy v1.0b3”
PERFORMER “Eagles”
TITLE “Hotel California”
FILE “Eagles – Hotel California.flac” WAVE
TRACK 01 AUDIO
TITLE “Hotel California”
PERFORMER “Eagles”
INDEX 00 00:00:00
INDEX 01 00:00:32
TRACK 02 AUDIO
TITLE “New Kid In Town”
PERFORMER “Eagles”
INDEX 01 06:30:52
TRACK 03 AUDIO
TITLE “Life In The Fast Lane”
PERFORMER “Eagles”
INDEX 01 11:34:40
TRACK 04 AUDIO
TITLE “Wasted Time”
PERFORMER “Eagles”
INDEX 01 16:20:47
TRACK 05 AUDIO
TITLE “Wasted Time (Reprise)”
PERFORMER “Eagles”
INDEX 01 21:17:05
TRACK 06 AUDIO
TITLE “Victim Of Love”
PERFORMER “Eagles”
INDEX 01 22:40:25
TRACK 07 AUDIO
TITLE “Pretty Maids All In A Row”
PERFORMER “Eagles”
INDEX 01 26:49:47
TRACK 08 AUDIO
TITLE “Try And Love Again”
PERFORMER “Eagles”
INDEX 01 30:48:10
TRACK 09 AUDIO
TITLE “The Last Resort”
PERFORMER “Eagles”
INDEX 01 35:58:62

Leave a Reply

Your email address will not be published. Required fields are marked *

This site uses Akismet to reduce spam. Learn how your comment data is processed.