Eagles – Hell Freezes Over




Artist: Eagles
Year: 1994
Genre: Rock
Notes: Discogs
Add. Notes:
Cover incl.: Yes
Encoder: FLAC
Bitrate: ~900 kBit/s (44.1 kHz/16 Bit/s)
Log & Cue incl.: Yes
Size: 650,95 MB
Password: “slam” (without ” “)


All Downloads/Hosters are compatible

Download 1
Turbobit.net
Rapidgator.net
UploadEver.com
KatFile.com
UsersDrive.com
Download 2
Turbobit.net
Rapidgator.net
UploadEver.com
KatFile.com
UsersDrive.com
Download 3
Turbobit.net
Rapidgator.net
UploadEver.com
KatFile.com
UsersDrive.com

Tracklist:

1 - Get Over It - 3:33
2 - Love Will Keep Us Alive - 4:03
3 - The Girl From Yesterday - 3:24
4 - Learn To Be Still - 4:28
5 - Tequila Sunrise - 3:28
6 - Hotel California - 7:12
7 - Wasted Time - 5:19
8 - Pretty Maids All In A Row - 4:26
9 - I Can't Tell You Why - 5:11
10 - New York Minute - 6:37
11 - The Last Resort - 7:24
12 - Take It Easy - 4:36
13 - In The City - 4:07
14 - Life In The Fast Lane - 6:01
15 - Desperado - 4:15

EAC-Log, CUE-Sheed & NFO:

Click to open spoiler
Exact Audio Copy V1.0 beta 3 from 29. August 2011

EAC extraction logfile from 4. September 2014, 21:04

Eagles / Hell Freezes Over

Used drive : PLEXTOR DVDR PX-L890SA Adapter: 1 ID: 0

Read mode : Secure
Utilize accurate stream : Yes
Defeat audio cache : Yes
Make use of C2 pointers : No

Read offset correction : 6
Overread into Lead-In and Lead-Out : No
Fill up missing offset samples with silence : Yes
Delete leading and trailing silent blocks : No
Null samples used in CRC calculations : Yes
Used interface : Native Win32 interface for Win NT & 2000

Used output format : User Defined Encoder
Selected bitrate : 768 kBit/s
Quality : High
Add ID3 tag : No
Command line compressor : G:\Program Files\Exact Audio Copy\FLAC\FLAC.EXE
Additional command line options : -V -8 -T “Date=%year%” -T “Genre=%genre%” %source%

TOC of the extracted CD

Track | Start | Length | Start sector | End sector
———————————————————
1 | 0:00.32 | 3:31.53 | 32 | 15909
2 | 3:32.10 | 4:03.32 | 15910 | 34166
3 | 7:35.42 | 3:23.70 | 34167 | 49461
4 | 10:59.37 | 4:28.65 | 49462 | 69626
5 | 15:28.27 | 3:27.73 | 69627 | 85224
6 | 18:56.25 | 7:12.05 | 85225 | 117629
7 | 26:08.30 | 5:19.45 | 117630 | 141599
8 | 31:28.00 | 4:26.62 | 141600 | 161611
9 | 35:54.62 | 5:11.30 | 161612 | 184966
10 | 41:06.17 | 6:37.53 | 184967 | 214794
11 | 47:43.70 | 7:24.35 | 214795 | 248129
12 | 55:08.30 | 4:36.27 | 248130 | 268856
13 | 59:44.57 | 4:07.65 | 268857 | 287446
14 | 63:52.47 | 6:01.18 | 287447 | 314539
15 | 69:53.65 | 4:17.65 | 314540 | 333879

Range status and errors

Selected range

Filename H:\MUSIC\1994. Eagles – Hell Freezes Over (Geffen 424 725-2, Germany)\Eagles – Hell Freezes Over.wav

Peak level 99.8 %
Extraction speed 6.8 X
Range quality 100.0 %
Test CRC E36A8048
Copy CRC E36A8048
Copy OK

No errors occurred

AccurateRip summary

Track 1 accurately ripped (confidence 89) [F5548EFD] (AR v2)
Track 2 accurately ripped (confidence 89) [69DA3D5C] (AR v2)
Track 3 accurately ripped (confidence 89) [F886F40B] (AR v2)
Track 4 accurately ripped (confidence 88) [DDBB7FE9] (AR v2)
Track 5 accurately ripped (confidence 88) [DE3822B3] (AR v2)
Track 6 accurately ripped (confidence 88) [21A3EE04] (AR v2)
Track 7 accurately ripped (confidence 87) [7782D071] (AR v2)
Track 8 accurately ripped (confidence 87) [81A33743] (AR v2)
Track 9 accurately ripped (confidence 87) [F4C4278F] (AR v2)
Track 10 accurately ripped (confidence 88) [E94EA0E2] (AR v2)
Track 11 accurately ripped (confidence 87) [1DFFBEF9] (AR v2)
Track 12 accurately ripped (confidence 88) [6AEB0A96] (AR v2)
Track 13 accurately ripped (confidence 88) [6580E098] (AR v2)
Track 14 accurately ripped (confidence 84) [A31576D8] (AR v2)
Track 15 accurately ripped (confidence 86) [851DF9E2] (AR v2)

All tracks accurately ripped

End of status report

==== Log checksum 0CD9A448160EFA634C7F84F053FBDA26EC8E2AA4140B4F622B99C6F35A72D650 ====

REM GENRE Rock
REM DATE 1994
REM DISCID D711630F
REM COMMENT “ExactAudioCopy v1.0b3”
PERFORMER “Eagles”
TITLE “Hell Freezes Over”
FILE “Eagles – Hell Freezes Over.flac” WAVE
TRACK 01 AUDIO
TITLE “Get Over It”
PERFORMER “Eagles”
INDEX 00 00:00:00
INDEX 01 00:00:32
TRACK 02 AUDIO
TITLE “Love Will Keep Us Alive”
PERFORMER “Eagles”
INDEX 01 03:32:10
TRACK 03 AUDIO
TITLE “The Girl From Yesterday”
PERFORMER “Eagles”
INDEX 01 07:35:42
TRACK 04 AUDIO
TITLE “Learn To Be Still”
PERFORMER “Eagles”
INDEX 01 10:59:37
TRACK 05 AUDIO
TITLE “Tequila Sunrise”
PERFORMER “Eagles”
INDEX 01 15:28:27
TRACK 06 AUDIO
TITLE “Hotel California”
PERFORMER “Eagles”
INDEX 00 18:56:24
INDEX 01 18:56:25
TRACK 07 AUDIO
TITLE “Wasted Time”
PERFORMER “Eagles”
INDEX 01 26:08:30
TRACK 08 AUDIO
TITLE “Pretty Maids All In A Row”
PERFORMER “Eagles”
INDEX 01 31:28:00
TRACK 09 AUDIO
TITLE “I Cani..t Tell You Why”
PERFORMER “Eagles”
INDEX 01 35:54:62
TRACK 10 AUDIO
TITLE “New York Minute”
PERFORMER “Eagles”
INDEX 01 41:06:17
TRACK 11 AUDIO
TITLE “The Last Resort”
PERFORMER “Eagles”
INDEX 01 47:43:70
TRACK 12 AUDIO
TITLE “Take It Easy”
PERFORMER “Eagles”
INDEX 01 55:08:30
TRACK 13 AUDIO
TITLE “In The City”
PERFORMER “Eagles”
INDEX 01 59:44:57
TRACK 14 AUDIO
TITLE “Life In The Fast Lane”
PERFORMER “Eagles”
INDEX 01 63:52:47
TRACK 15 AUDIO
TITLE “Desperado”
PERFORMER “Eagles”
INDEX 01 69:53:65


Leave a Reply

Your email address will not be published. Required fields are marked *

This site uses Akismet to reduce spam. Learn how your comment data is processed.